  0
SECTION
  2
HEADER
  9
$ACADVER
  1
AC1015
  9
$ACADMAINTVER
 70
     6
  9
$DWGCODEPAGE
  3
ANSI_1252
  9
$INSBASE
 10
0.0
 20
0.0
 30
0.0
  9
$EXTMIN
 10
0.0
 20
0.0
 30
0.0
  9
$EXTMAX
 10
297.0000000000001
 20
210.0000000000001
 30
0.0
  9
$LIMMIN
 10
0.0
 20
0.0
  9
$LIMMAX
 10
12.0
 20
9.0
  9
$ORTHOMODE
 70
     0
  9
$REGENMODE
 70
     1
  9
$FILLMODE
 70
     1
  9
$QTEXTMODE
 70
     0
  9
$MIRRTEXT
 70
     1
  9
$LTSCALE
 40
1.0
  9
$ATTMODE
 70
     1
  9
$TEXTSIZE
 40
0.2
  9
$TRACEWID
 40
0.05
  9
$TEXTSTYLE
  7
Standard
  9
$CLAYER
  8
0
  9
$CELTYPE
  6
ByLayer
  9
$CECOLOR
 62
   256
  9
$CELTSCALE
 40
1.0
  9
$DISPSILH
 70
     0
  9
$DIMSCALE
 40
1.0
  9
$DIMASZ
 40
0.18
  9
$DIMEXO
 40
0.0625
  9
$DIMDLI
 40
0.38
  9
$DIMRND
 40
0.0
  9
$DIMDLE
 40
0.0
  9
$DIMEXE
 40
0.18
  9
$DIMTP
 40
0.0
  9
$DIMTM
 40
0.0
  9
$DIMTXT
 40
0.18
  9
$DIMCEN
 40
0.09
  9
$DIMTSZ
 40
0.0
  9
$DIMTOL
 70
     0
  9
$DIMLIM
 70
     0
  9
$DIMTIH
 70
     1
  9
$DIMTOH
 70
     1
  9
$DIMSE1
 70
     0
  9
$DIMSE2
 70
     0
  9
$DIMTAD
 70
     0
  9
$DIMZIN
 70
     0
  9
$DIMBLK
  1

  9
$DIMASO
 70
     1
  9
$DIMSHO
 70
     1
  9
$DIMPOST
  1

  9
$DIMAPOST
  1

  9
$DIMALT
 70
     0
  9
$DIMALTD
 70
     2
  9
$DIMALTF
 40
25.4
  9
$DIMLFAC
 40
1.0
  9
$DIMTOFL
 70
     0
  9
$DIMTVP
 40
0.0
  9
$DIMTIX
 70
     0
  9
$DIMSOXD
 70
     0
  9
$DIMSAH
 70
     0
  9
$DIMBLK1
  1

  9
$DIMBLK2
  1

  9
$DIMSTYLE
  2
Standard
  9
$DIMCLRD
 70
     0
  9
$DIMCLRE
 70
     0
  9
$DIMCLRT
 70
     0
  9
$DIMTFAC
 40
1.0
  9
$DIMGAP
 40
0.09
  9
$DIMJUST
 70
     0
  9
$DIMSD1
 70
     0
  9
$DIMSD2
 70
     0
  9
$DIMTOLJ
 70
     1
  9
$DIMTZIN
 70
     0
  9
$DIMALTZ
 70
     0
  9
$DIMALTTZ
 70
     0
  9
$DIMUPT
 70
     0
  9
$DIMDEC
 70
     4
  9
$DIMTDEC
 70
     4
  9
$DIMALTU
 70
     2
  9
$DIMALTTD
 70
     2
  9
$DIMTXSTY
  7
Standard
  9
$DIMAUNIT
 70
     0
  9
$DIMADEC
 70
     0
  9
$DIMALTRND
 40
0.0
  9
$DIMAZIN
 70
     0
  9
$DIMDSEP
 70
    46
  9
$DIMATFIT
 70
     3
  9
$DIMFRAC
 70
     0
  9
$DIMLDRBLK
  1

  9
$DIMLUNIT
 70
     2
  9
$DIMLWD
 70
    -2
  9
$DIMLWE
 70
    -2
  9
$DIMTMOVE
 70
     0
  9
$LUNITS
 70
     2
  9
$LUPREC
 70
     4
  9
$SKETCHINC
 40
0.1
  9
$FILLETRAD
 40
0.5
  9
$AUNITS
 70
     0
  9
$AUPREC
 70
     0
  9
$MENU
  1
.
  9
$ELEVATION
 40
0.0
  9
$PELEVATION
 40
0.0
  9
$THICKNESS
 40
0.0
  9
$LIMCHECK
 70
     0
  9
$CHAMFERA
 40
0.5
  9
$CHAMFERB
 40
0.5
  9
$CHAMFERC
 40
1.0
  9
$CHAMFERD
 40
0.0
  9
$SKPOLY
 70
     0
  9
$TDCREATE
 40
2456997.594794815
  9
$TDUCREATE
 40
2456997.553128148
  9
$TDUPDATE
 40
2456997.594795
  9
$TDUUPDATE
 40
2456997.553128333
  9
$TDINDWG
 40
0.0000000116
  9
$TDUSRTIMER
 40
0.0000000116
  9
$USRTIMER
 70
     1
  9
$ANGBASE
 50
0.0
  9
$ANGDIR
 70
     0
  9
$PDMODE
 70
     0
  9
$PDSIZE
 40
0.0
  9
$PLINEWID
 40
0.0
  9
$SPLFRAME
 70
     0
  9
$SPLINETYPE
 70
     6
  9
$SPLINESEGS
 70
     8
  9
$HANDSEED
  5
3EF
  9
$SURFTAB1
 70
     6
  9
$SURFTAB2
 70
     6
  9
$SURFTYPE
 70
     6
  9
$SURFU
 70
     6
  9
$SURFV
 70
     6
  9
$UCSBASE
  2

  9
$UCSNAME
  2

  9
$UCSORG
 10
0.0
 20
0.0
 30
0.0
  9
$UCSXDIR
 10
1.0
 20
0.0
 30
0.0
  9
$UCSYDIR
 10
0.0
 20
1.0
 30
0.0
  9
$UCSORTHOREF
  2

  9
$UCSORTHOVIEW
 70
     0
  9
$UCSORGTOP
 10
0.0
 20
0.0
 30
0.0
  9
$UCSORGBOTTOM
 10
0.0
 20
0.0
 30
0.0
  9
$UCSORGLEFT
 10
0.0
 20
0.0
 30
0.0
  9
$UCSORGRIGHT
 10
0.0
 20
0.0
 30
0.0
  9
$UCSORGFRONT
 10
0.0
 20
0.0
 30
0.0
  9
$UCSORGBACK
 10
0.0
 20
0.0
 30
0.0
  9
$PUCSBASE
  2

  9
$PUCSNAME
  2

  9
$PUCSORG
 10
0.0
 20
0.0
 30
0.0
  9
$PUCSXDIR
 10
1.0
 20
0.0
 30
0.0
  9
$PUCSYDIR
 10
0.0
 20
1.0
 30
0.0
  9
$PUCSORTHOREF
  2

  9
$PUCSORTHOVIEW
 70
     0
  9
$PUCSORGTOP
 10
0.0
 20
0.0
 30
0.0
  9
$PUCSORGBOTTOM
 10
0.0
 20
0.0
 30
0.0
  9
$PUCSORGLEFT
 10
0.0
 20
0.0
 30
0.0
  9
$PUCSORGRIGHT
 10
0.0
 20
0.0
 30
0.0
  9
$PUCSORGFRONT
 10
0.0
 20
0.0
 30
0.0
  9
$PUCSORGBACK
 10
0.0
 20
0.0
 30
0.0
  9
$USERI1
 70
     0
  9
$USERI2
 70
     0
  9
$USERI3
 70
     0
  9
$USERI4
 70
     0
  9
$USERI5
 70
     0
  9
$USERR1
 40
18.1
  9
$USERR2
 40
0.0
  9
$USERR3
 40
0.0
  9
$USERR4
 40
0.0
  9
$USERR5
 40
0.0
  9
$WORLDVIEW
 70
     1
  9
$SHADEDGE
 70
     3
  9
$SHADEDIF
 70
    70
  9
$TILEMODE
 70
     1
  9
$MAXACTVP
 70
    64
  9
$PINSBASE
 10
0.0
 20
0.0
 30
0.0
  9
$PLIMCHECK
 70
     0
  9
$PEXTMIN
 10
1.00000000000000E+20
 20
1.00000000000000E+20
 30
1.00000000000000E+20
  9
$PEXTMAX
 10
-1.00000000000000E+20
 20
-1.00000000000000E+20
 30
-1.00000000000000E+20
  9
$PLIMMIN
 10
0.0
 20
0.0
  9
$PLIMMAX
 10
12.0
 20
9.0
  9
$UNITMODE
 70
     0
  9
$VISRETAIN
 70
     1
  9
$PLINEGEN
 70
     0
  9
$PSLTSCALE
 70
     1
  9
$TREEDEPTH
 70
  3020
  9
$CMLSTYLE
  2
Standard
  9
$CMLJUST
 70
     0
  9
$CMLSCALE
 40
1.0
  9
$PROXYGRAPHICS
 70
     1
  9
$MEASUREMENT
 70
     1
  9
$CELWEIGHT
370
    -1
  9
$ENDCAPS
280
     0
  9
$JOINSTYLE
280
     0
  9
$LWDISPLAY
290
     0
  9
$INSUNITS
 70
     4
  9
$HYPERLINKBASE
  1

  9
$STYLESHEET
  1

  9
$XEDIT
290
     1
  9
$CEPSNTYPE
380
     0
  9
$PSTYLEMODE
290
     1
  9
$FINGERPRINTGUID
  2
{BE928B0C-A4E3-4467-935D-EEC2943A6479}
  9
$VERSIONGUID
  2
{FAEB1C32-E019-11D5-929B-00C0DF256EC4}
  9
$EXTNAMES
290
     1
  9
$PSVPSCALE
 40
0.0
  9
$OLESTARTUP
290
     0
  0
ENDSEC
  0
SECTION
  2
CLASSES
  0
CLASS
  1
ACDBDICTIONARYWDFLT
  2
AcDbDictionaryWithDefault
  3
ObjectDBX Classes
 90
        0
280
     0
281
     0
  0
CLASS
  1
VISUALSTYLE
  2
AcDbVisualStyle
  3
ObjectDBX Classes
 90
     4095
280
     0
281
     0
  0
CLASS
  1
MATERIAL
  2
AcDbMaterial
  3
ObjectDBX Classes
 90
     1153
280
     0
281
     0
  0
CLASS
  1
DICTIONARYVAR
  2
AcDbDictionaryVar
  3
ObjectDBX Classes
 90
        0
280
     0
281
     0
  0
CLASS
  1
ACDBPLACEHOLDER
  2
AcDbPlaceHolder
  3
ObjectDBX Classes
 90
        0
280
     0
281
     0
  0
CLASS
  1
LAYOUT
  2
AcDbLayout
  3
ObjectDBX Classes
 90
        0
280
     0
281
     0
  0
ENDSEC
  0
SECTION
  2
TABLES
  0
TABLE
  2
VPORT
  5
8
330
0
100
AcDbSymbolTable
 70
     1
  0
VPORT
  5
29
330
8
100
AcDbSymbolTableRecord
100
AcDbViewportTableRecord
  2
*Active
 70
     0
 10
0.0
 20
0.0
 11
1.0
 21
1.0
 12
148.5000000000001
 22
105.0000000000001
 13
0.0
 23
0.0
 14
0.5
 24
0.5
 15
0.5
 25
0.5
 16
0.0
 26
0.0
 36
1.0
 17
0.0
 27
0.0
 37
0.0
 40
231.0000000000001
 41
1.60267857142857
 42
50.0
 43
0.0
 44
0.0
 50
0.0
 51
0.0
 71
     0
 72
   100
 73
     1
 74
     3
 75
     0
 76
     0
 77
     0
 78
     0
281
     0
 65
     1
110
0.0
120
0.0
130
0.0
111
1.0
121
0.0
131
0.0
112
0.0
122
1.0
132
0.0
 79
     0
146
0.0
  0
ENDTAB
  0
TABLE
  2
LTYPE
  5
5
330
0
100
AcDbSymbolTable
 70
    10
  0
LTYPE
  5
14
330
5
100
AcDbSymbolTableRecord
100
AcDbLinetypeTableRecord
  2
ByBlock
 70
     0
  3

 72
    65
 73
     0
 40
0.0
  0
LTYPE
  5
15
330
5
100
AcDbSymbolTableRecord
100
AcDbLinetypeTableRecord
  2
ByLayer
 70
     0
  3

 72
    65
 73
     0
 40
0.0
  0
LTYPE
  5
16
330
5
100
AcDbSymbolTableRecord
100
AcDbLinetypeTableRecord
  2
Continuous
 70
     0
  3
Solid line
 72
    65
 73
     0
 40
0.0
  0
LTYPE
  5
3F
330
5
100
AcDbSymbolTableRecord
100
AcDbLinetypeTableRecord
  2
DASHED
 70
     0
  3
Dashed
 72
    65
 73
     2
 40
15.0
 49
7.0
 74
     0
 49
-8.0
 74
     0
  0
LTYPE
  5
40
330
5
100
AcDbSymbolTableRecord
100
AcDbLinetypeTableRecord
  2
DOTTED
 70
     0
  3
Dotted
 72
    65
 73
     2
 40
1.0
 49
0.0
 74
     0
 49
-1.0
 74
     0
  0
LTYPE
  5
41
330
5
100
AcDbSymbolTableRecord
100
AcDbLinetypeTableRecord
  2
DOT_CENTER
 70
     0
  3
Dot_Center
 72
    65
 73
     4
 40
14.0
 49
12.0
 74
     0
 49
-1.0
 74
     0
 49
0.0
 74
     0
 49
-1.0
 74
     0
  0
LTYPE
  5
42
330
5
100
AcDbSymbolTableRecord
100
AcDbLinetypeTableRecord
  2
LONG_DASHED
 70
     0
  3
Long_Dashed
 72
    65
 73
     2
 40
15.0
 49
10.0
 74
     0
 49
-5.0
 74
     0
  0
LTYPE
  5
43
330
5
100
AcDbSymbolTableRecord
100
AcDbLinetypeTableRecord
  2
DASH_CENTER
 70
     0
  3
Dash_Center
 72
    65
 73
     4
 40
14.0
 49
11.0
 74
     0
 49
-1.0
 74
     0
 49
1.0
 74
     0
 49
-1.0
 74
     0
  0
LTYPE
  5
44
330
5
100
AcDbSymbolTableRecord
100
AcDbLinetypeTableRecord
  2
PHANTOM
 70
     0
  3
Phantom
 72
    65
 73
     6
 40
13.0
 49
10.0
 74
     0
 49
-1.0
 74
     0
 49
0.0
 74
     0
 49
-1.0
 74
     0
 49
0.0
 74
     0
 49
-1.0
 74
     0
  0
LTYPE
  5
45
330
5
100
AcDbSymbolTableRecord
100
AcDbLinetypeTableRecord
  2
CENTER_DASH_DASH
 70
     0
  3
Center_Dash_Dash
 72
    65
 73
     6
 40
14.0
 49
9.0
 74
     0
 49
-1.0
 74
     0
 49
1.0
 74
     0
 49
-1.0
 74
     0
 49
1.0
 74
     0
 49
-1.0
 74
     0
  0
LTYPE
  5
46
330
5
100
AcDbSymbolTableRecord
100
AcDbLinetypeTableRecord
  2
CHAIN
 70
     0
  3
CHAIN
 72
    65
 73
     4
 40
4.0
 49
1.0
 74
     0
 49
-1.0
 74
     0
 49
1.0
 74
     0
 49
-1.0
 74
     0
  0
LTYPE
  5
47
330
5
100
AcDbSymbolTableRecord
100
AcDbLinetypeTableRecord
  2
DASHED_SPACE
 70
     0
  3
DASHED_SPACE
 72
    65
 73
     2
 40
2.0
 49
1.0
 74
     0
 49
-1.0
 74
     0
  0
ENDTAB
  0
TABLE
  2
LAYER
  5
2
330
0
100
AcDbSymbolTable
 70
     6
  0
LAYER
  5
10
330
2
100
AcDbSymbolTableRecord
100
AcDbLayerTableRecord
  2
0
 70
     0
 62
     7
  6
Continuous
370
    -3
390
F
  0
LAYER
  5
48
330
2
100
AcDbSymbolTableRecord
100
AcDbLayerTableRecord
  2
1
 70
     0
 62
     7
  6
Continuous
370
    -3
390
F
  0
LAYER
  5
49
330
2
100
AcDbSymbolTableRecord
100
AcDbLayerTableRecord
  2
Bemaßungen_TC_020513_DIN_
 70
     0
 62
     7
  6
Continuous
370
    -3
390
F
  0
LAYER
  5
4A
330
2
100
AcDbSymbolTableRecord
100
AcDbLayerTableRecord
  2
Mittellinie_TC_020513_DIN_
 70
     0
 62
     7
  6
Continuous
370
    -3
390
F
  0
LAYER
  5
4B
330
2
100
AcDbSymbolTableRecord
100
AcDbLayerTableRecord
  2
Sichtbare_Kanten_TC_020513_DIN_
 70
     0
 62
     7
  6
Continuous
370
    -3
390
F
  0
LAYER
  5
4C
330
2
100
AcDbSymbolTableRecord
100
AcDbLayerTableRecord
  2
Stich_1-Linien_TC_020513_DIN_
 70
     0
 62
     7
  6
Continuous
370
    -3
390
F
  0
ENDTAB
  0
TABLE
  2
STYLE
  5
3
330
0
100
AcDbSymbolTable
 70
     4
  0
STYLE
  5
11
330
3
100
AcDbSymbolTableRecord
100
AcDbTextStyleTableRecord
  2
Standard
 70
     0
 40
0.0
 41
1.0
 50
0.0
 71
     0
 42
0.2
  3
txt
  4

  0
STYLE
  5
95
330
3
100
AcDbSymbolTableRecord
100
AcDbTextStyleTableRecord
  2
CONVERTER_11
 70
     0
 40
0.0
 41
1.2
 50
0.0
 71
     0
 42
0.2
  3
ARIAL.TTF
  4

  0
STYLE
  5
98
330
3
100
AcDbSymbolTableRecord
100
AcDbTextStyleTableRecord
  2
CONVERTER_12
 70
     0
 40
0.0
 41
1.38
 50
0.0
 71
     0
 42
0.2
  3
ARIAL.TTF
  4

  0
STYLE
  5
37C
330
3
100
AcDbSymbolTableRecord
100
AcDbTextStyleTableRecord
  2
CONVERTER_13
 70
     0
 40
0.0
 41
0.95
 50
0.0
 71
     0
 42
0.2
  3
simplex.shx
  4

  0
ENDTAB
  0
TABLE
  2
VIEW
  5
6
330
0
100
AcDbSymbolTable
 70
     0
  0
ENDTAB
  0
TABLE
  2
UCS
  5
7
330
0
100
AcDbSymbolTable
 70
     0
  0
ENDTAB
  0
TABLE
  2
APPID
  5
9
330
0
100
AcDbSymbolTable
 70
     1
  0
APPID
  5
12
330
9
100
AcDbSymbolTableRecord
100
AcDbRegAppTableRecord
  2
ACAD
 70
     0
  0
ENDTAB
  0
TABLE
  2
DIMSTYLE
  5
A
330
0
100
AcDbSymbolTable
 70
     8
100
AcDbDimStyleTable
  0
DIMSTYLE
105
27
330
A
100
AcDbSymbolTableRecord
100
AcDbDimStyleTableRecord
  2
Standard
 70
     0
178
     0
340
11
  0
DIMSTYLE
105
380
102
{ACAD_REACTORS
330
381
102
}
330
A
100
AcDbSymbolTableRecord
100
AcDbDimStyleTableRecord
  2
ME10_DIM_10
 70
     0
 41
3.0
 42
0.5
 44
1.0
 73
     0
 74
     0
 77
     1
 78
     8
140
3.0
147
2.0
172
     1
173
     1
174
     1
175
     1
176
     2
177
     2
271
     2
178
     4
271
     2
340
37C
  0
DIMSTYLE
105
38B
102
{ACAD_REACTORS
330
38C
102
}
330
A
100
AcDbSymbolTableRecord
100
AcDbDimStyleTableRecord
  2
ME10_DIM_11
 70
     0
 41
3.0
 42
0.5
 44
1.0
 73
     0
 74
     0
 77
     1
 78
     8
140
3.0
147
2.0
172
     1
173
     1
174
     1
175
     1
176
     2
177
     2
271
     2
178
     4
271
     2
340
37C
  0
DIMSTYLE
105
396
102
{ACAD_REACTORS
330
397
102
}
330
A
100
AcDbSymbolTableRecord
100
AcDbDimStyleTableRecord
  2
ME10_DIM_12
 70
     0
 41
3.0
 42
0.5
 44
1.0
 73
     0
 74
     0
 77
     1
 78
     8
140
3.0
147
2.0
172
     1
173
     1
174
     1
175
     1
176
     2
177
     2
271
     2
178
     4
271
     2
340
37C
  0
DIMSTYLE
105
3A1
102
{ACAD_REACTORS
330
3A2
102
}
330
A
100
AcDbSymbolTableRecord
100
AcDbDimStyleTableRecord
  2
ME10_DIM_13
 70
     0
 41
3.0
 42
0.5
 44
1.0
 73
     0
 74
     0
 77
     1
 78
     8
140
3.0
147
2.0
172
     1
173
     1
174
     1
175
     1
176
     2
177
     2
271
     2
178
     4
271
     2
340
37C
  0
DIMSTYLE
105
3AC
102
{ACAD_REACTORS
330
3AD
102
}
330
A
100
AcDbSymbolTableRecord
100
AcDbDimStyleTableRecord
  2
ME10_DIM_14
 70
     0
 41
3.0
 42
0.5
 44
1.0
 73
     0
 74
     0
 77
     1
 78
     8
140
3.0
147
2.0
172
     1
173
     1
174
     1
175
     1
176
     2
177
     2
271
     2
178
     4
271
     2
340
37C
  0
DIMSTYLE
105
3B7
102
{ACAD_REACTORS
330
3B8
102
}
330
A
100
AcDbSymbolTableRecord
100
AcDbDimStyleTableRecord
  2
ME10_DIM_15
 70
     0
 41
3.0
 42
0.5
 44
1.0
 73
     0
 74
     0
 77
     1
 78
     8
140
3.0
147
2.0
172
     1
173
     1
174
     1
175
     1
176
     2
177
     2
271
     2
178
     4
271
     2
340
37C
  0
DIMSTYLE
105
3C2
102
{ACAD_REACTORS
330
3C3
102
}
330
A
100
AcDbSymbolTableRecord
100
AcDbDimStyleTableRecord
  2
ME10_DIM_16
 70
     0
 41
3.0
 42
0.5
 44
1.0
 73
     0
 74
     0
 77
     1
 78
     8
140
3.0
147
2.0
172
     1
173
     1
174
     1
175
     1
176
     2
177
     2
271
     2
178
     4
271
     2
340
37C
  0
ENDTAB
  0
TABLE
  2
BLOCK_RECORD
  5
1
330
0
100
AcDbSymbolTable
 70
     9
  0
BLOCK_RECORD
  5
1F
330
1
100
AcDbSymbolTableRecord
100
AcDbBlockTableRecord
  2
*Model_Space
340
22
  0
BLOCK_RECORD
  5
1B
330
1
100
AcDbSymbolTableRecord
100
AcDbBlockTableRecord
  2
*Paper_Space
340
1E
  0
BLOCK_RECORD
  5
23
330
1
100
AcDbSymbolTableRecord
100
AcDbBlockTableRecord
  2
*Paper_Space0
340
26
  0
BLOCK_RECORD
  5
4D
330
1
100
AcDbSymbolTableRecord
100
AcDbBlockTableRecord
  2
_formato_A4
340
0
102
{BLKREFS
331
50
102
}
  0
BLOCK_RECORD
  5
376
330
1
100
AcDbSymbolTableRecord
100
AcDbBlockTableRecord
  2
*D2
340
0
  0
BLOCK_RECORD
  5
382
330
1
100
AcDbSymbolTableRecord
100
AcDbBlockTableRecord
  2
*D3
340
0
  0
BLOCK_RECORD
  5
38D
330
1
100
AcDbSymbolTableRecord
100
AcDbBlockTableRecord
  2
*D4
340
0
  0
BLOCK_RECORD
  5
398
330
1
100
AcDbSymbolTableRecord
100
AcDbBlockTableRecord
  2
*D5
340
0
  0
BLOCK_RECORD
  5
3A3
330
1
100
AcDbSymbolTableRecord
100
AcDbBlockTableRecord
  2
*D6
340
0
  0
BLOCK_RECORD
  5
3AE
330
1
100
AcDbSymbolTableRecord
100
AcDbBlockTableRecord
  2
*D7
340
0
  0
BLOCK_RECORD
  5
3B9
330
1
100
AcDbSymbolTableRecord
100
AcDbBlockTableRecord
  2
*D8
340
0
  0
ENDTAB
  0
ENDSEC
  0
SECTION
  2
BLOCKS
  0
BLOCK
  5
20
330
1F
100
AcDbEntity
  8
0
100
AcDbBlockBegin
  2
*Model_Space
 70
     0
 10
0.0
 20
0.0
 30
0.0
  3
*Model_Space
  1

  0
ENDBLK
  5
21
330
1F
100
AcDbEntity
  8
0
100
AcDbBlockEnd
  0
BLOCK
  5
1C
330
1B
100
AcDbEntity
 67
     1
  8
0
100
AcDbBlockBegin
  2
*Paper_Space
 70
     0
 10
0.0
 20
0.0
 30
0.0
  3
*Paper_Space
  1

  0
ENDBLK
  5
1D
330
1B
100
AcDbEntity
 67
     1
  8
0
100
AcDbBlockEnd
  0
BLOCK
  5
24
330
23
100
AcDbEntity
  8
0
100
AcDbBlockBegin
  2
*Paper_Space0
 70
     0
 10
0.0
 20
0.0
 30
0.0
  3
*Paper_Space0
  1

  0
ENDBLK
  5
25
330
23
100
AcDbEntity
  8
0
100
AcDbBlockEnd
  0
BLOCK
  5
4E
330
4D
100
AcDbEntity
  8
0
100
AcDbBlockBegin
  2
_formato_A4
 70
     0
 10
297.0000000000001
 20
0.0
 30
0.0
  3
_formato_A4
  1

  0
LINE
  5
51
330
4D
100
AcDbEntity
  8
1
  6
Continuous
 62
     7
100
AcDbLine
 10
108.0000000000001
 20
5.0
 30
0.0
 11
292.0000000000001
 21
5.0
 31
0.0
  0
LINE
  5
52
330
4D
100
AcDbEntity
  8
1
  6
Continuous
 62
     7
100
AcDbLine
 10
108.0000000000001
 20
25.0
 30
0.0
 11
108.0000000000001
 21
5.0
 31
0.0
  0
LINE
  5
53
330
4D
100
AcDbEntity
  8
1
  6
Continuous
 62
     7
100
AcDbLine
 10
108.0000000000001
 20
20.0
 30
0.0
 11
292.0000000000001
 21
20.0
 31
0.0
  0
LINE
  5
54
330
4D
100
AcDbEntity
  8
1
  6
Continuous
 62
     7
100
AcDbLine
 10
4.99999999999989
 20
189.0
 30
0.0
 11
4.99999999999989
 21
5.0
 31
0.0
  0
LINE
  5
55
330
4D
100
AcDbEntity
  8
1
  6
Continuous
 62
     7
100
AcDbLine
 10
133.0000000000002
 20
20.0
 30
0.0
 11
133.0000000000002
 21
25.0
 31
0.0
  0
LINE
  5
56
330
4D
100
AcDbEntity
  8
1
  6
Continuous
 62
     7
100
AcDbLine
 10
115.0000000000001
 20
20.0
 30
0.0
 11
115.0000000000001
 21
25.0
 31
0.0
  0
LINE
  5
57
330
4D
100
AcDbEntity
  8
1
  6
Continuous
 62
     7
100
AcDbLine
 10
108.0000000000001
 20
25.0
 30
0.0
 11
292.0000000000001
 21
25.0
 31
0.0
  0
LINE
  5
58
102
{ACAD_REACTORS
330
9C
102
}
330
4D
100
AcDbEntity
  8
1
  6
Continuous
 62
     7
100
AcDbLine
 10
282.8428748399059
 20
10.55800208038033
 30
0.0
 11
281.5095415065727
 21
9.78877131114973
 31
0.0
  0
LINE
  5
59
102
{ACAD_REACTORS
330
9C
102
}
330
4D
100
AcDbEntity
  8
1
  6
Continuous
 62
     7
100
AcDbLine
 10
281.6763006887428
 20
10.65463653264794
 30
0.0
 11
282.5097265375796
 21
11.13545913774624
 31
0.0
  0
LINE
  5
5A
102
{ACAD_REACTORS
330
9C
102
}
330
4D
100
AcDbEntity
  8
1
  6
Continuous
 62
     7
100
AcDbLine
 10
281.6763006887428
 20
12.16666666666663
 30
0.0
 11
281.6763006887428
 21
10.65463653264794
 31
0.0
  0
LINE
  5
5B
102
{ACAD_REACTORS
330
9C
102
}
330
4D
100
AcDbEntity
  8
1
  6
Continuous
 62
     7
100
AcDbLine
 10
282.6763006887428
 20
12.16666666666663
 30
0.0
 11
281.6763006887428
 21
12.16666666666663
 31
0.0
  0
LINE
  5
5C
102
{ACAD_REACTORS
330
9C
102
}
330
4D
100
AcDbEntity
  8
1
  6
Continuous
 62
     7
100
AcDbLine
 10
281.6763006887428
 20
12.83333333333326
 30
0.0
 11
282.6763006887428
 21
12.83333333333326
 31
0.0
  0
LINE
  5
5D
102
{ACAD_REACTORS
330
9C
102
}
330
4D
100
AcDbEntity
  8
1
  6
Continuous
 62
     7
100
AcDbLine
 10
281.6763006887428
 20
14.34536346735195
 30
0.0
 11
281.6763006887428
 21
12.83333333333326
 31
0.0
  0
LINE
  5
5E
102
{ACAD_REACTORS
330
9C
102
}
330
4D
100
AcDbEntity
  8
1
  6
Continuous
 62
     7
100
AcDbLine
 10
282.5097265375796
 20
13.86454086225376
 30
0.0
 11
281.6763006887428
 21
14.34536346735195
 31
0.0
  0
LINE
  5
5F
102
{ACAD_REACTORS
330
9C
102
}
330
4D
100
AcDbEntity
  8
1
  6
Continuous
 62
     7
100
AcDbLine
 10
281.5095415065727
 20
15.21122868885027
 30
0.0
 11
282.8428748399059
 21
14.44199791961944
 31
0.0
  0
LINE
  5
60
102
{ACAD_REACTORS
330
9D
102
}
330
4D
100
AcDbEntity
  8
1
  6
Continuous
 62
     7
100
AcDbLine
 10
274.3429673554094
 20
10.84673060906323
 30
0.0
 11
274.3429673554094
 21
14.15326939093666
 31
0.0
  0
LINE
  5
61
102
{ACAD_REACTORS
330
9D
102
}
330
4D
100
AcDbEntity
  8
1
  6
Continuous
 62
     7
100
AcDbLine
 10
275.0096340220761
 20
11.0392519172633
 30
0.0
 11
275.0096340220761
 21
10.84673060906323
 31
0.0
  0
LINE
  5
62
102
{ACAD_REACTORS
330
9D
102
}
330
4D
100
AcDbEntity
  8
1
  6
Continuous
 62
     7
100
AcDbLine
 10
275.0096340220761
 20
14.15326939093666
 30
0.0
 11
275.0096340220761
 21
11.0392519172633
 31
0.0
  0
LINE
  5
63
102
{ACAD_REACTORS
330
9E
102
}
330
4D
100
AcDbEntity
  8
1
  6
Continuous
 62
     7
100
AcDbLine
 10
278.1763932042462
 20
8.44261746499581
 30
0.0
 11
276.0098190530831
 21
9.69256409066691
 31
0.0
  0
LINE
  5
64
102
{ACAD_REACTORS
330
9E
102
}
330
4D
100
AcDbEntity
  8
1
  6
Continuous
 62
     7
100
AcDbLine
 10
276.3429673554094
 20
10.2700211480327
 30
0.0
 11
278.5095415065727
 21
9.0200745223616
 31
0.0
  0
LINE
  5
65
102
{ACAD_REACTORS
330
9E
102
}
330
4D
100
AcDbEntity
  8
1
  6
Continuous
 62
     7
100
AcDbLine
 10
276.3429673554094
 20
14.92250016016737
 30
0.0
 11
276.3429673554094
 21
10.2700211480327
 31
0.0
  0
LINE
  5
66
102
{ACAD_REACTORS
330
9E
102
}
330
4D
100
AcDbEntity
  8
1
  6
Continuous
 62
     7
100
AcDbLine
 10
275.6763006887428
 20
10.27002114803258
 30
0.0
 11
275.6763006887428
 21
14.92250016016737
 31
0.0
  0
LINE
  5
67
102
{ACAD_REACTORS
330
9F
102
}
330
4D
100
AcDbEntity
  8
1
  6
Continuous
 62
     7
100
AcDbLine
 10
279.8485336717861
 20
15.86370041827229
 30
0.0
 11
278.6763006887428
 21
13.83333333333326
 31
0.0
  0
LINE
  5
68
102
{ACAD_REACTORS
330
9F
102
}
330
4D
100
AcDbEntity
  8
1
  6
Continuous
 62
     7
100
AcDbLine
 10
280.3429673554094
 20
9.3082690706018
 30
0.0
 11
280.3429673554094
 21
15.73121731203457
 31
0.0
  0
LINE
  5
69
102
{ACAD_REACTORS
330
9F
102
}
330
4D
100
AcDbEntity
  8
1
  6
Continuous
 62
     7
100
AcDbLine
 10
279.6763006887428
 20
12.5
 30
0.0
 11
279.6763006887428
 21
9.3082690706018
 31
0.0
  0
LINE
  5
6A
102
{ACAD_REACTORS
330
9F
102
}
330
4D
100
AcDbEntity
  8
1
  6
Continuous
 62
     7
100
AcDbLine
 10
277.6763006887428
 20
10.84758507263291
 30
0.0
 11
277.6763006887428
 21
12.5
 31
0.0
  0
LINE
  5
6B
102
{ACAD_REACTORS
330
9F
102
}
330
4D
100
AcDbEntity
  8
1
  6
Continuous
 62
     7
100
AcDbLine
 10
277.0096340220761
 20
12.5
 30
0.0
 11
277.0096340220761
 21
10.84758507263291
 31
0.0
  0
LINE
  5
6C
102
{ACAD_REACTORS
330
9F
102
}
330
4D
100
AcDbEntity
  8
1
  6
Continuous
 62
     7
100
AcDbLine
 10
277.5040677056995
 20
15.86370041827229
 30
0.0
 11
278.6763006887428
 21
13.83333333333326
 31
0.0
  0
LINE
  5
6D
102
{ACAD_REACTORS
330
9F
102
}
330
4D
100
AcDbEntity
  8
1
  6
Continuous
 62
     7
100
AcDbLine
 10
277.0096340220761
 20
12.5
 30
0.0
 11
277.0096340220761
 21
15.73121731203457
 31
0.0
  0
LINE
  5
6E
330
4D
100
AcDbEntity
  8
1
  6
Continuous
 62
     7
100
AcDbLine
 10
278.6763006887428
 20
7.5
 30
0.0
 11
270.2598654136012
 21
12.35563573565855
 31
0.0
  0
LINE
  5
6F
330
4D
100
AcDbEntity
  8
1
  6
Continuous
 62
     7
100
AcDbLine
 10
287.0927359638844
 20
12.35563573565855
 30
0.0
 11
278.6763006887428
 21
7.5
 31
0.0
  0
LINE
  5
70
330
4D
100
AcDbEntity
  8
1
  6
Continuous
 62
     7
100
AcDbLine
 10
278.6763006887428
 20
17.5
 30
0.0
 11
287.0927359638844
 21
12.64436426434133
 31
0.0
  0
LINE
  5
71
330
4D
100
AcDbEntity
  8
1
  6
Continuous
 62
     7
100
AcDbLine
 10
270.2598654136012
 20
12.64436426434133
 30
0.0
 11
278.6763006887428
 21
17.5
 31
0.0
  0
LINE
  5
72
102
{ACAD_REACTORS
330
9F
102
}
330
4D
100
AcDbEntity
  8
1
  6
Continuous
 62
     7
100
AcDbLine
 10
277.6763006887428
 20
14.23205080756884
 30
0.0
 11
277.6763006887428
 21
12.5
 31
0.0
  0
LINE
  5
73
102
{ACAD_REACTORS
330
9F
102
}
330
4D
100
AcDbEntity
  8
1
  6
Continuous
 62
     7
100
AcDbLine
 10
278.5319631214453
 20
12.75
 30
0.0
 11
277.6763006887428
 21
14.23205080756884
 31
0.0
  0
LINE
  5
74
102
{ACAD_REACTORS
330
9F
102
}
330
4D
100
AcDbEntity
  8
1
  6
Continuous
 62
     7
100
AcDbLine
 10
279.6763006887428
 20
14.23205080756884
 30
0.0
 11
278.8206382560402
 21
12.75
 31
0.0
  0
LINE
  5
75
102
{ACAD_REACTORS
330
9F
102
}
330
4D
100
AcDbEntity
  8
1
  6
Continuous
 62
     7
100
AcDbLine
 10
279.6763006887428
 20
12.5
 30
0.0
 11
279.6763006887428
 21
14.23205080756884
 31
0.0
  0
LINE
  5
76
102
{ACAD_REACTORS
330
9C
102
}
330
4D
100
AcDbEntity
  8
1
  6
Continuous
 62
     7
100
AcDbLine
 10
281.0096340220763
 20
10.07749983983263
 30
0.0
 11
281.0096340220763
 21
14.92250016016737
 31
0.0
  0
LINE
  5
77
330
4D
100
AcDbEntity
  8
1
  6
Continuous
 62
     7
100
AcDbLine
 10
292.0000000000001
 20
189.0
 30
0.0
 11
4.99999999999989
 21
189.0
 31
0.0
  0
LINE
  5
78
330
4D
100
AcDbEntity
  8
1
  6
Continuous
 62
     7
100
AcDbLine
 10
292.0000000000001
 20
5.0
 30
0.0
 11
292.0000000000001
 21
189.0
 31
0.0
  0
LINE
  5
79
330
4D
100
AcDbEntity
  8
1
  6
Continuous
 62
     7
100
AcDbLine
 10
4.99999999999989
 20
5.0
 30
0.0
 11
108.0000000000001
 21
5.0
 31
0.0
  0
LINE
  5
7A
330
4D
100
AcDbEntity
  8
1
  6
Continuous
 62
     7
100
AcDbLine
 10
297.0000000000001
 20
0.0
 30
0.0
 11
297.0000000000001
 21
210.0000000000001
 31
0.0
  0
LINE
  5
7B
330
4D
100
AcDbEntity
  8
1
  6
Continuous
 62
     7
100
AcDbLine
 10
297.0000000000001
 20
210.0000000000001
 30
0.0
 11
0.0
 21
210.0000000000001
 31
0.0
  0
LINE
  5
7C
330
4D
100
AcDbEntity
  8
1
  6
Continuous
 62
     7
100
AcDbLine
 10
0.0
 20
210.0000000000001
 30
0.0
 11
0.0
 21
0.0
 31
0.0
  0
LINE
  5
7D
330
4D
100
AcDbEntity
  8
1
  6
Continuous
 62
     7
100
AcDbLine
 10
0.0
 20
0.0
 30
0.0
 11
297.0000000000001
 21
0.0
 31
0.0
  0
LINE
  5
7E
330
4D
100
AcDbEntity
  8
1
  6
Continuous
 62
     7
100
AcDbLine
 10
148.4999999999998
 20
210.0000000000001
 30
0.0
 11
148.4999999999998
 21
195.0000000000001
 31
0.0
  0
LINE
  5
7F
330
4D
100
AcDbEntity
  8
1
  6
Continuous
 62
     7
100
AcDbLine
 10
138.0000000000001
 20
20.0
 30
0.0
 11
138.0000000000001
 21
5.0
 31
0.0
  0
LINE
  5
80
330
4D
100
AcDbEntity
  8
1
  6
Continuous
 62
     7
100
AcDbLine
 10
265.3526013774855
 20
20.0
 30
0.0
 11
265.3526013774855
 21
5.0
 31
0.0
  0
LINE
  5
81
330
4D
100
AcDbEntity
  8
1
  6
Continuous
 62
     7
100
AcDbLine
 10
248.0000000000001
 20
20.0
 30
0.0
 11
248.0000000000001
 21
5.0
 31
0.0
  0
LINE
  5
82
330
4D
100
AcDbEntity
  8
1
  6
Continuous
 62
     7
100
AcDbLine
 10
108.0000000000001
 20
14.99999999999989
 30
0.0
 11
138.0000000000001
 21
14.99999999999989
 31
0.0
  0
LINE
  5
83
330
4D
100
AcDbEntity
  8
1
  6
Continuous
 62
     7
100
AcDbLine
 10
108.0000000000001
 20
9.99999999999986
 30
0.0
 11
138.0000000000001
 21
9.99999999999986
 31
0.0
  0
ARC
  5
84
102
{ACAD_REACTORS
330
9C
102
}
330
4D
100
AcDbEntity
  8
1
  6
Continuous
 62
     7
100
AcDbCircle
 10
282.6763006887428
 20
10.84673060906323
 30
0.0
 40
0.3333333333333172
100
AcDbArc
 50
299.9816393688334
 51
119.9816393688407
  0
ARC
  5
85
102
{ACAD_REACTORS
330
9C
102
}
330
4D
100
AcDbEntity
  8
1
  6
Continuous
 62
     7
100
AcDbCircle
 10
282.6763006887428
 20
12.5
 30
0.0
 40
0.3333333333333695
100
AcDbArc
 50
270.0
 51
90.0
  0
ARC
  5
86
102
{ACAD_REACTORS
330
9C
102
}
330
4D
100
AcDbEntity
  8
1
  6
Continuous
 62
     7
100
AcDbCircle
 10
282.6763006887428
 20
14.15326939093666
 30
0.0
 40
0.3333333333333755
100
AcDbArc
 50
240.0183606311498
 51
60.01836063115638
  0
ARC
  5
87
102
{ACAD_REACTORS
330
9D
102
}
330
4D
100
AcDbEntity
  8
1
  6
Continuous
 62
     7
100
AcDbCircle
 10
274.6763006887428
 20
10.84673060906323
 30
0.0
 40
0.3333333333333712
100
AcDbArc
 50
180.0
 51
0.0
  0
ARC
  5
88
102
{ACAD_REACTORS
330
9D
102
}
330
4D
100
AcDbEntity
  8
1
  6
Continuous
 62
     7
100
AcDbCircle
 10
274.6763006887428
 20
14.15326939093666
 30
0.0
 40
0.3333333333333144
100
AcDbArc
 50
0.0
 51
180.0
  0
ARC
  5
89
102
{ACAD_REACTORS
330
9E
102
}
330
4D
100
AcDbEntity
  8
1
  6
Continuous
 62
     7
100
AcDbCircle
 10
278.3429673554094
 20
8.7313459936787
 30
0.0
 40
0.3333333333333709
100
AcDbArc
 50
240.0183606311493
 51
60.01836063114089
  0
ARC
  5
8A
102
{ACAD_REACTORS
330
9E
102
}
330
4D
100
AcDbEntity
  8
1
  6
Continuous
 62
     7
100
AcDbCircle
 10
276.0096340220761
 20
14.92250016016737
 30
0.0
 40
0.3333333333333144
100
AcDbArc
 50
0.0
 51
180.0
  0
ARC
  5
8B
102
{ACAD_REACTORS
330
9F
102
}
330
4D
100
AcDbEntity
  8
1
  6
Continuous
 62
     7
100
AcDbCircle
 10
280.0780011429341
 20
15.73121731203457
 30
0.0
 40
0.2649662124753149
100
AcDbArc
 50
0.0
 51
149.9999999999746
  0
ARC
  5
8C
102
{ACAD_REACTORS
330
9F
102
}
330
4D
100
AcDbEntity
  8
1
  6
Continuous
 62
     7
100
AcDbCircle
 10
280.0096340220763
 20
9.3082690706018
 30
0.0
 40
0.3333333333334849
100
AcDbArc
 50
180.0
 51
0.0
  0
ARC
  5
8D
102
{ACAD_REACTORS
330
9F
102
}
330
4D
100
AcDbEntity
  8
1
  6
Continuous
 62
     7
100
AcDbCircle
 10
277.3429673554094
 20
10.84758507263291
 30
0.0
 40
0.3333333333333144
100
AcDbArc
 50
180.0
 51
0.0
  0
ARC
  5
8E
102
{ACAD_REACTORS
330
9F
102
}
330
4D
100
AcDbEntity
  8
1
  6
Continuous
 62
     7
100
AcDbCircle
 10
277.2746002345514
 20
15.73121731203457
 30
0.0
 40
0.2649662124753346
100
AcDbArc
 50
30.00000000001307
 51
180.0
  0
ARC
  5
8F
102
{ACAD_REACTORS
330
9C
102
}
330
4D
100
AcDbEntity
  8
1
  6
Continuous
 62
     7
100
AcDbCircle
 10
281.3429673554094
 20
10.07749983983263
 30
0.0
 40
0.3333333333331439
100
AcDbArc
 50
180.0
 51
299.9816393688589
  0
ARC
  5
90
102
{ACAD_REACTORS
330
9C
102
}
330
4D
100
AcDbEntity
  8
1
  6
Continuous
 62
     7
100
AcDbCircle
 10
281.3429673554094
 20
14.92250016016737
 30
0.0
 40
0.3333333333334024
100
AcDbArc
 50
60.01836063114121
 51
180.0
  0
ARC
  5
91
330
4D
100
AcDbEntity
  8
1
  6
Continuous
 62
     7
100
AcDbCircle
 10
287.0094488883027
 20
12.5
 30
0.0
 40
0.1666666666667438
100
AcDbArc
 50
299.9816393688841
 51
60.01836063109538
  0
ARC
  5
92
330
4D
100
AcDbEntity
  8
1
  6
Continuous
 62
     7
100
AcDbCircle
 10
270.3431524891829
 20
12.5
 30
0.0
 40
0.1666666666666407
100
AcDbArc
 50
119.9816393689046
 51
240.0183606311158
  0
ARC
  5
93
102
{ACAD_REACTORS
330
9E
102
}
330
4D
100
AcDbEntity
  8
1
  6
Continuous
 62
     7
100
AcDbCircle
 10
276.3429673554094
 20
10.2700211480327
 30
0.0
 40
0.6666666666666288
100
AcDbArc
 50
180.0000000000104
 51
240.018360631158
  0
ARC
  5
94
102
{ACAD_REACTORS
330
9F
102
}
330
4D
100
AcDbEntity
  8
1
  6
Continuous
 62
     7
100
AcDbCircle
 10
278.6763006887428
 20
12.83333333333326
 30
0.0
 40
0.166666666666709
100
AcDbArc
 50
209.9999999999622
 51
330.0000000000182
  0
MTEXT
  5
96
330
4D
100
AcDbEntity
  8
1
 62
     7
100
AcDbMText
 10
256.6763006887428
 20
16.26063942075598
 30
0.0
 40
3.0
 41
0.0
 71
     5
 72
     1
  1
Scale
  7
CONVERTER_11
 73
     1
 44
1.32052821128451
  0
MTEXT
  5
97
330
4D
100
AcDbEntity
  8
1
 62
     7
100
AcDbMText
 10
151.4999999999998
 20
194.0000000000001
 30
0.0
 40
4.0
 41
0.0
 71
     5
 72
     1
  1
Diritti riservati      All rights reserved
  7
CONVERTER_11
 73
     1
 44
1.32052821128451
  0
MTEXT
  5
99
330
4D
100
AcDbEntity
  8
1
 62
     7
100
AcDbMText
 10
123.0000000000001
 20
17.49999999999994
 30
0.0
 40
2.5
 41
0.0
 71
     5
 72
     1
  1
dimensions in mm
  7
CONVERTER_12
 73
     1
 44
0.60024009603842
  0
MTEXT
  5
9A
330
4D
100
AcDbEntity
  8
1
 62
     7
100
AcDbMText
 10
109.0000000000001
 20
12.49999999999987
 30
0.0
 40
3.0
 41
0.0
 71
     4
 72
     1
  1
Date
  7
CONVERTER_11
 73
     1
 44
1.32052821128451
  0
MTEXT
  5
9B
330
4D
100
AcDbEntity
  8
1
 62
     7
100
AcDbMText
 10
109.0000000000001
 20
7.49999999999987
 30
0.0
 40
3.0
 41
0.0
 71
     4
 72
     1
  1
Sign.
  7
CONVERTER_11
 73
     1
 44
1.32052821128451
  0
HATCH
  5
9C
330
4D
100
AcDbEntity
  8
1
  6
Continuous
 62
     7
100
AcDbHatch
 10
0.0
 20
0.0
 30
0.0
210
0.0
220
0.0
230
1.0
  2
SOLID
 70
     1
 71
     1
 91
        1
 92
        1
 93
       14
 72
     2
 10
281.3429673554094
 20
14.92250016016737
 40
0.3333333333334024
 50
60.01836063114121
 51
180.0
 73
     1
 72
     1
 10
281.0096340220763
 20
14.92250016016737
 11
281.0096340220763
 21
10.07749983983263
 72
     2
 10
281.3429673554094
 20
10.07749983983263
 40
0.3333333333331439
 50
180.0
 51
299.9816393688589
 73
     1
 72
     1
 10
281.5095415065727
 20
9.78877131114973
 11
282.8428748399059
 21
10.55800208038033
 72
     2
 10
282.6763006887428
 20
10.84673060906323
 40
0.3333333333333172
 50
299.9816393688334
 51
479.9816393688407
 73
     1
 72
     1
 10
282.5097265375796
 20
11.13545913774624
 11
281.6763006887428
 21
10.65463653264794
 72
     1
 10
281.6763006887428
 20
10.65463653264794
 11
281.6763006887428
 21
12.16666666666663
 72
     1
 10
281.6763006887428
 20
12.16666666666663
 11
282.6763006887428
 21
12.16666666666663
 72
     2
 10
282.6763006887428
 20
12.5
 40
0.3333333333333695
 50
270.0
 51
450.0
 73
     1
 72
     1
 10
282.6763006887428
 20
12.83333333333326
 11
281.6763006887428
 21
12.83333333333326
 72
     1
 10
281.6763006887428
 20
12.83333333333326
 11
281.6763006887428
 21
14.34536346735195
 72
     1
 10
281.6763006887428
 20
14.34536346735195
 11
282.5097265375796
 21
13.86454086225376
 72
     2
 10
282.6763006887428
 20
14.15326939093666
 40
0.3333333333333755
 50
240.0183606311498
 51
420.0183606311564
 73
     1
 72
     1
 10
282.8428748399059
 20
14.44199791961944
 11
281.5095415065727
 21
15.21122868885027
 97
       14
330
86
330
5E
330
5D
330
5C
330
85
330
5B
330
5A
330
59
330
84
330
58
330
8F
330
76
330
90
330
5F
 75
     0
 76
     1
 98
        1
 10
0.0
 20
0.0
  0
HATCH
  5
9D
330
4D
100
AcDbEntity
  8
1
  6
Continuous
 62
     7
100
AcDbHatch
 10
0.0
 20
0.0
 30
0.0
210
0.0
220
0.0
230
1.0
  2
SOLID
 70
     1
 71
     1
 91
        1
 92
        1
 93
        5
 72
     2
 10
274.6763006887428
 20
14.15326939093666
 40
0.3333333333333144
 50
0.0
 51
180.0
 73
     1
 72
     1
 10
274.3429673554094
 20
14.15326939093666
 11
274.3429673554094
 21
10.84673060906323
 72
     2
 10
274.6763006887428
 20
10.84673060906323
 40
0.3333333333333712
 50
180.0
 51
360.0
 73
     1
 72
     1
 10
275.0096340220761
 20
10.84673060906323
 11
275.0096340220761
 21
11.0392519172633
 72
     1
 10
275.0096340220761
 20
11.0392519172633
 11
275.0096340220761
 21
14.15326939093666
 97
        5
330
88
330
60
330
87
330
61
330
62
 75
     0
 76
     1
 98
        1
 10
0.0
 20
0.0
  0
HATCH
  5
9E
330
4D
100
AcDbEntity
  8
1
  6
Continuous
 62
     7
100
AcDbHatch
 10
0.0
 20
0.0
 30
0.0
210
0.0
220
0.0
230
1.0
  2
SOLID
 70
     1
 71
     1
 91
        1
 92
        1
 93
        7
 72
     2
 10
276.0096340220761
 20
14.92250016016737
 40
0.3333333333333144
 50
0.0
 51
180.0
 73
     1
 72
     1
 10
275.6763006887428
 20
14.92250016016737
 11
275.6763006887428
 21
10.27002114803258
 72
     2
 10
276.3429673554094
 20
10.2700211480327
 40
0.6666666666666288
 50
180.0000000000104
 51
240.018360631158
 73
     1
 72
     1
 10
276.0098190530831
 20
9.692564090666906
 11
278.1763932042462
 21
8.442617464995806
 72
     2
 10
278.3429673554094
 20
8.731345993678701
 40
0.3333333333333709
 50
240.0183606311493
 51
420.0183606311409
 73
     1
 72
     1
 10
278.5095415065727
 20
9.020074522361597
 11
276.3429673554094
 21
10.2700211480327
 72
     1
 10
276.3429673554094
 20
10.2700211480327
 11
276.3429673554094
 21
14.92250016016737
 97
        7
330
8A
330
66
330
93
330
63
330
89
330
64
330
65
 75
     0
 76
     1
 98
        1
 10
0.0
 20
0.0
  0
HATCH
  5
9F
330
4D
100
AcDbEntity
  8
1
  6
Continuous
 62
     7
100
AcDbHatch
 10
0.0
 20
0.0
 30
0.0
210
0.0
220
0.0
230
1.0
  2
SOLID
 70
     1
 71
     1
 91
        1
 92
        1
 93
       16
 72
     2
 10
280.0780011429341
 20
15.73121731203457
 40
0.2649662124753149
 50
210.0000000000254
 51
360.0
 73
     0
 72
     1
 10
280.3429673554094
 20
15.73121731203457
 11
280.3429673554094
 21
9.308269070601796
 72
     2
 10
280.0096340220763
 20
9.308269070601796
 40
0.3333333333334849
 50
0.0
 51
180.0
 73
     0
 72
     1
 10
279.6763006887428
 20
9.308269070601796
 11
279.6763006887428
 21
12.5
 72
     1
 10
279.6763006887428
 20
12.5
 11
279.6763006887428
 21
14.23205080756884
 72
     1
 10
279.6763006887428
 20
14.23205080756884
 11
278.8206382560402
 21
12.75
 72
     2
 10
278.6763006887428
 20
12.83333333333326
 40
0.166666666666709
 50
29.99999999998175
 51
150.0000000000378
 73
     0
 72
     1
 10
278.5319631214453
 20
12.75
 11
277.6763006887428
 21
14.23205080756884
 72
     1
 10
277.6763006887428
 20
14.23205080756884
 11
277.6763006887428
 21
12.5
 72
     1
 10
277.6763006887428
 20
12.5
 11
277.6763006887428
 21
10.84758507263291
 72
     2
 10
277.3429673554094
 20
10.84758507263291
 40
0.3333333333333144
 50
0.0
 51
180.0
 73
     0
 72
     1
 10
277.0096340220761
 20
10.84758507263291
 11
277.0096340220761
 21
12.5
 72
     1
 10
277.0096340220761
 20
12.5
 11
277.0096340220761
 21
15.73121731203457
 72
     2
 10
277.2746002345514
 20
15.73121731203457
 40
0.2649662124753346
 50
180.0
 51
329.9999999999869
 73
     0
 72
     1
 10
277.5040677056995
 20
15.86370041827229
 11
278.6763006887428
 21
13.83333333333326
 72
     1
 10
278.6763006887428
 20
13.83333333333326
 11
279.8485336717861
 21
15.86370041827229
 97
       16
330
6C
330
8E
330
6D
330
6B
330
8D
330
6A
330
72
330
73
330
94
330
74
330
75
330
69
330
8C
330
68
330
8B
330
67
 75
     0
 76
     1
 98
        1
 10
0.0
 20
0.0
  0
ENDBLK
  5
4F
330
4D
100
AcDbEntity
  8
0
100
AcDbBlockEnd
  0
BLOCK
  5
37E
330
376
100
AcDbEntity
  8
0
100
AcDbBlockBegin
  2
*D2
 70
     1
 10
0.0
 20
0.0
 30
0.0
  3
*D2
  1

  0
LINE
  5
377
330
376
100
AcDbEntity
  8
1
  6
Continuous
 62
     2
100
AcDbLine
 10
181.097062764187
 20
66.69897214714995
 30
0.0
 11
181.097062764187
 21
167.6989721471496
 31
0.0
  0
LINE
  5
378
330
376
100
AcDbEntity
  8
1
  6
Continuous
 62
     2
100
AcDbLine
 10
143.958346784236
 20
66.69897214714995
 30
0.0
 11
182.097062764187
 21
66.69897214714995
 31
0.0
  0
LINE
  5
379
330
376
100
AcDbEntity
  8
1
  6
Continuous
 62
     2
100
AcDbLine
 10
107.958346784236
 20
167.6989721471496
 30
0.0
 11
182.097062764187
 21
167.6989721471496
 31
0.0
  0
SOLID
  5
37A
330
376
100
AcDbEntity
  8
1
 62
     2
100
AcDbTrace
 10
180.7021052714248
 20
69.69897214714995
 30
0.0
 11
181.4920202569492
 21
69.69897214714995
 31
0.0
 12
181.097062764187
 22
66.69897214714995
 32
0.0
 13
181.097062764187
 23
66.69897214714995
 33
0.0
  0
SOLID
  5
37B
330
376
100
AcDbEntity
  8
1
 62
     2
100
AcDbTrace
 10
181.4920202569492
 20
164.6989721471496
 30
0.0
 11
180.7021052714248
 21
164.6989721471496
 31
0.0
 12
181.097062764187
 22
167.6989721471496
 32
0.0
 13
181.097062764187
 23
167.6989721471496
 33
0.0
  0
MTEXT
  5
37D
330
376
100
AcDbEntity
  8
1
 62
     4
100
AcDbMText
 10
179.097062764187
 20
114.4989721471498
 30
0.0
 40
3.0
 41
0.0
 71
     7
 72
     1
  1
101
  7
CONVERTER_13
 11
0.0
 21
1.0
 31
0.0
 73
     1
 44
0.60024009603842
  0
ENDBLK
  5
37F
330
376
100
AcDbEntity
  8
0
100
AcDbBlockEnd
  0
BLOCK
  5
389
330
382
100
AcDbEntity
  8
0
100
AcDbBlockBegin
  2
*D3
 70
     1
 10
0.0
 20
0.0
 30
0.0
  3
*D3
  1

  0
LINE
  5
383
330
382
100
AcDbEntity
  8
1
  6
Continuous
 62
     2
100
AcDbLine
 10
171.385303562297
 20
148.6989721471496
 30
0.0
 11
171.385303562297
 21
66.69897214714996
 31
0.0
  0
LINE
  5
384
330
382
100
AcDbEntity
  8
1
  6
Continuous
 62
     2
100
AcDbLine
 10
137.833346784236
 20
148.6989721471496
 30
0.0
 11
172.385303562297
 21
148.6989721471496
 31
0.0
  0
LINE
  5
385
330
382
100
AcDbEntity
  8
1
  6
Continuous
 62
     2
100
AcDbLine
 10
150.008346784236
 20
66.69897214714996
 30
0.0
 11
172.385303562297
 21
66.69897214714996
 31
0.0
  0
SOLID
  5
386
330
382
100
AcDbEntity
  8
1
 62
     2
100
AcDbTrace
 10
171.7802610550592
 20
145.6989721471496
 30
0.0
 11
170.9903460695348
 21
145.6989721471496
 31
0.0
 12
171.385303562297
 22
148.6989721471496
 32
0.0
 13
171.385303562297
 23
148.6989721471496
 33
0.0
  0
SOLID
  5
387
330
382
100
AcDbEntity
  8
1
 62
     2
100
AcDbTrace
 10
170.9903460695348
 20
69.69897214714996
 30
0.0
 11
171.7802610550592
 21
69.69897214714996
 31
0.0
 12
171.385303562297
 22
66.69897214714996
 32
0.0
 13
171.385303562297
 23
66.69897214714996
 33
0.0
  0
MTEXT
  5
388
330
382
100
AcDbEntity
  8
1
 62
     4
100
AcDbMText
 10
169.385303562297
 20
105.2989721471498
 30
0.0
 40
3.0
 41
0.0
 71
     7
 72
     1
  1
82
  7
CONVERTER_13
 11
0.0
 21
1.0
 31
0.0
 73
     1
 44
0.60024009603842
  0
ENDBLK
  5
38A
330
382
100
AcDbEntity
  8
0
100
AcDbBlockEnd
  0
BLOCK
  5
394
330
38D
100
AcDbEntity
  8
0
100
AcDbBlockBegin
  2
*D4
 70
     1
 10
0.0
 20
0.0
 30
0.0
  3
*D4
  1

  0
LINE
  5
38E
330
38D
100
AcDbEntity
  8
1
  6
Continuous
 62
     2
100
AcDbLine
 10
29.4583467842358
 20
126.637288857447
 30
0.0
 11
149.458346784236
 21
126.637288857447
 31
0.0
  0
LINE
  5
38F
330
38D
100
AcDbEntity
  8
1
  6
Continuous
 62
     2
100
AcDbLine
 10
29.4583467842358
 20
104.6989721471496
 30
0.0
 11
29.4583467842358
 21
127.637288857447
 31
0.0
  0
LINE
  5
390
330
38D
100
AcDbEntity
  8
1
  6
Continuous
 62
     2
100
AcDbLine
 10
149.458346784236
 20
104.6989721471496
 30
0.0
 11
149.458346784236
 21
127.637288857447
 31
0.0
  0
SOLID
  5
391
330
38D
100
AcDbEntity
  8
1
 62
     2
100
AcDbTrace
 10
32.4583467842358
 20
127.0322463502092
 30
0.0
 11
32.4583467842358
 21
126.2423313646848
 31
0.0
 12
29.4583467842358
 22
126.637288857447
 32
0.0
 13
29.4583467842358
 23
126.637288857447
 33
0.0
  0
SOLID
  5
392
330
38D
100
AcDbEntity
  8
1
 62
     2
100
AcDbTrace
 10
146.458346784236
 20
126.2423313646848
 30
0.0
 11
146.458346784236
 21
127.0322463502092
 31
0.0
 12
149.458346784236
 22
126.637288857447
 32
0.0
 13
149.458346784236
 23
126.637288857447
 33
0.0
  0
MTEXT
  5
393
330
38D
100
AcDbEntity
  8
1
 62
     4
100
AcDbMText
 10
93.62560400524059
 20
128.637288857447
 30
0.0
 40
3.0
 41
0.0
 71
     7
 72
     1
  1
120
  7
CONVERTER_13
 11
0.9999999999970619
 21
2.424068405545306E-6
 31
0.0
 73
     1
 44
0.60024009603842
  0
ENDBLK
  5
395
330
38D
100
AcDbEntity
  8
0
100
AcDbBlockEnd
  0
BLOCK
  5
39F
330
398
100
AcDbEntity
  8
0
100
AcDbBlockBegin
  2
*D5
 70
     1
 10
0.0
 20
0.0
 30
0.0
  3
*D5
  1

  0
LINE
  5
399
330
398
100
AcDbEntity
  8
1
  6
Continuous
 62
     2
100
AcDbLine
 10
157.458346784236
 20
29.9633062052349
 30
0.0
 11
21.4583467842358
 21
29.9633062052349
 31
0.0
  0
LINE
  5
39A
330
398
100
AcDbEntity
  8
1
  6
Continuous
 62
     2
100
AcDbLine
 10
157.458346784236
 20
69.4489721471499
 30
0.0
 11
157.458346784236
 21
28.9633062052349
 31
0.0
  0
LINE
  5
39B
330
398
100
AcDbEntity
  8
1
  6
Continuous
 62
     2
100
AcDbLine
 10
21.4583467842358
 20
69.4489721471499
 30
0.0
 11
21.4583467842358
 21
28.9633062052349
 31
0.0
  0
SOLID
  5
39C
330
398
100
AcDbEntity
  8
1
 62
     2
100
AcDbTrace
 10
154.458346784236
 20
29.56834871247271
 30
0.0
 11
154.458346784236
 21
30.35826369799709
 31
0.0
 12
157.458346784236
 22
29.9633062052349
 32
0.0
 13
157.458346784236
 23
29.9633062052349
 33
0.0
  0
SOLID
  5
39D
330
398
100
AcDbEntity
  8
1
 62
     2
100
AcDbTrace
 10
24.4583467842358
 20
30.35826369799709
 30
0.0
 11
24.4583467842358
 21
29.56834871247271
 31
0.0
 12
21.4583467842358
 22
29.9633062052349
 32
0.0
 13
21.4583467842358
 23
29.9633062052349
 33
0.0
  0
MTEXT
  5
39E
330
398
100
AcDbEntity
  8
1
 62
     4
100
AcDbMText
 10
86.30834678423591
 20
31.9633062052349
 30
0.0
 40
3.0
 41
0.0
 71
     7
 72
     1
  1
136
  7
CONVERTER_13
 11
0.9999999999970619
 21
2.424068405545306E-6
 31
0.0
 73
     1
 44
0.60024009603842
  0
ENDBLK
  5
3A0
330
398
100
AcDbEntity
  8
0
100
AcDbBlockEnd
  0
BLOCK
  5
3AA
330
3A3
100
AcDbEntity
  8
0
100
AcDbBlockBegin
  2
*D6
 70
     1
 10
0.0
 20
0.0
 30
0.0
  3
*D6
  1

  0
LINE
  5
3A4
330
3A3
100
AcDbEntity
  8
1
  6
Continuous
 62
     2
100
AcDbLine
 10
277.9485559923311
 20
30.3243740200604
 30
0.0
 11
203.9013988307889
 21
30.3243740200604
 31
0.0
  0
LINE
  5
3A5
330
3A3
100
AcDbEntity
  8
1
  6
Continuous
 62
     2
100
AcDbLine
 10
277.9485559923311
 20
73.6989721471499
 30
0.0
 11
277.9485559923311
 21
29.3243740200604
 31
0.0
  0
LINE
  5
3A6
330
3A3
100
AcDbEntity
  8
1
  6
Continuous
 62
     2
100
AcDbLine
 10
203.9013988307889
 20
66.1989721471499
 30
0.0
 11
203.9013988307889
 21
29.3243740200604
 31
0.0
  0
SOLID
  5
3A7
330
3A3
100
AcDbEntity
  8
1
 62
     2
100
AcDbTrace
 10
274.9485559923311
 20
29.92941652729821
 30
0.0
 11
274.9485559923311
 21
30.71933151282258
 31
0.0
 12
277.9485559923311
 22
30.3243740200604
 32
0.0
 13
277.9485559923311
 23
30.3243740200604
 33
0.0
  0
SOLID
  5
3A8
330
3A3
100
AcDbEntity
  8
1
 62
     2
100
AcDbTrace
 10
206.9013988307889
 20
30.71933151282258
 30
0.0
 11
206.9013988307889
 21
29.92941652729821
 31
0.0
 12
203.9013988307889
 22
30.3243740200604
 32
0.0
 13
203.9013988307889
 23
30.3243740200604
 33
0.0
  0
MTEXT
  5
3A9
330
3A3
100
AcDbEntity
  8
1
 62
     4
100
AcDbMText
 10
238.67497741156
 20
32.3243740200604
 30
0.0
 40
3.0
 41
0.0
 71
     7
 72
     1
  1
74
  7
CONVERTER_13
 11
0.9999999999970619
 21
2.424068405545306E-6
 31
0.0
 73
     1
 44
0.60024009603842
  0
ENDBLK
  5
3AB
330
3A3
100
AcDbEntity
  8
0
100
AcDbBlockEnd
  0
BLOCK
  5
3B5
330
3AE
100
AcDbEntity
  8
0
100
AcDbBlockBegin
  2
*D7
 70
     1
 10
0.0
 20
0.0
 30
0.0
  3
*D7
  1

  0
LINE
  5
3AF
330
3AE
100
AcDbEntity
  8
1
  6
Continuous
 62
     2
100
AcDbLine
 10
246.951398830789
 20
119.432048327902
 30
0.0
 11
203.951398830789
 21
119.432048327902
 31
0.0
  0
LINE
  5
3B0
330
3AE
100
AcDbEntity
  8
1
  6
Continuous
 62
     2
100
AcDbLine
 10
246.951398830789
 20
109.1989721471496
 30
0.0
 11
246.951398830789
 21
120.432048327902
 31
0.0
  0
LINE
  5
3B1
330
3AE
100
AcDbEntity
  8
1
  6
Continuous
 62
     2
100
AcDbLine
 10
203.951398830789
 20
109.1989721471496
 30
0.0
 11
203.951398830789
 21
120.432048327902
 31
0.0
  0
SOLID
  5
3B2
330
3AE
100
AcDbEntity
  8
1
 62
     2
100
AcDbTrace
 10
243.951398830789
 20
119.0370908351398
 30
0.0
 11
243.951398830789
 21
119.8270058206642
 31
0.0
 12
246.951398830789
 22
119.432048327902
 32
0.0
 13
246.951398830789
 23
119.432048327902
 33
0.0
  0
SOLID
  5
3B3
330
3AE
100
AcDbEntity
  8
1
 62
     2
100
AcDbTrace
 10
206.951398830789
 20
119.8270058206642
 30
0.0
 11
206.951398830789
 21
119.0370908351398
 31
0.0
 12
203.951398830789
 22
119.432048327902
 32
0.0
 13
203.951398830789
 23
119.432048327902
 33
0.0
  0
MTEXT
  5
3B4
330
3AE
100
AcDbEntity
  8
1
 62
     4
100
AcDbMText
 10
228.580335822817
 20
121.432048327902
 30
0.0
 40
3.0
 41
0.0
 71
     7
 72
     1
  1
43
  7
CONVERTER_13
 11
0.9999999999970619
 21
2.424068405545306E-6
 31
0.0
 73
     1
 44
0.60024009603842
  0
ENDBLK
  5
3B6
330
3AE
100
AcDbEntity
  8
0
100
AcDbBlockEnd
  0
BLOCK
  5
3C0
330
3B9
100
AcDbEntity
  8
0
100
AcDbBlockBegin
  2
*D8
 70
     1
 10
0.0
 20
0.0
 30
0.0
  3
*D8
  1

  0
LINE
  5
3BA
330
3B9
100
AcDbEntity
  8
1
  6
Continuous
 62
     2
100
AcDbLine
 10
72.29634678423577
 20
177.296866517578
 30
0.0
 11
106.620346784236
 21
177.296866517578
 31
0.0
  0
LINE
  5
3BB
330
3B9
100
AcDbEntity
  8
1
  6
Continuous
 62
     2
100
AcDbLine
 10
72.29634678423577
 20
167.6989721471496
 30
0.0
 11
72.29634678423577
 21
178.296866517578
 31
0.0
  0
LINE
  5
3BC
330
3B9
100
AcDbEntity
  8
1
  6
Continuous
 62
     2
100
AcDbLine
 10
106.620346784236
 20
167.6989721471496
 30
0.0
 11
106.620346784236
 21
178.296866517578
 31
0.0
  0
SOLID
  5
3BD
330
3B9
100
AcDbEntity
  8
1
 62
     2
100
AcDbTrace
 10
75.29634678423577
 20
177.6918240103402
 30
0.0
 11
75.29634678423577
 21
176.9019090248158
 31
0.0
 12
72.29634678423577
 22
177.296866517578
 32
0.0
 13
72.29634678423577
 23
177.296866517578
 33
0.0
  0
SOLID
  5
3BE
330
3B9
100
AcDbEntity
  8
1
 62
     2
100
AcDbTrace
 10
103.620346784236
 20
176.9019090248158
 30
0.0
 11
103.620346784236
 21
177.6918240103402
 31
0.0
 12
106.620346784236
 22
177.296866517578
 32
0.0
 13
106.620346784236
 23
177.296866517578
 33
0.0
  0
MTEXT
  5
3BF
330
3B9
100
AcDbEntity
  8
1
 62
     4
100
AcDbMText
 10
85.55834678423588
 20
179.296866517578
 30
0.0
 40
3.0
 41
0.0
 71
     7
 72
     1
  1
M40
  7
CONVERTER_13
 11
0.9999999999970619
 21
2.424068405545306E-6
 31
0.0
 73
     1
 44
0.60024009603842
  0
ENDBLK
  5
3C1
330
3B9
100
AcDbEntity
  8
0
100
AcDbBlockEnd
  0
ENDSEC
  0
SECTION
  2
ENTITIES
  0
INSERT
  5
50
330
1F
100
AcDbEntity
  8
1
100
AcDbBlockReference
  2
_formato_A4
 10
297.0000000000001
 20
0.0
 30
0.0
  0
POINT
  5
A0
330
1F
100
AcDbEntity
  8
Bemaßungen_TC_020513_DIN_
 62
     7
100
AcDbPoint
 10
143.458346784236
 20
66.6989721471499
 30
0.0
  0
POINT
  5
A1
330
1F
100
AcDbEntity
  8
Bemaßungen_TC_020513_DIN_
 62
     7
100
AcDbPoint
 10
107.458346784236
 20
167.6989721471496
 30
0.0
  0
POINT
  5
A2
330
1F
100
AcDbEntity
  8
Bemaßungen_TC_020513_DIN_
 62
     7
100
AcDbPoint
 10
119.156406336311
 20
148.6989721471496
 30
0.0
  0
POINT
  5
A3
330
1F
100
AcDbEntity
  8
Bemaßungen_TC_020513_DIN_
 62
     7
100
AcDbPoint
 10
143.458346784236
 20
66.6989721471499
 30
0.0
  0
POINT
  5
A4
330
1F
100
AcDbEntity
  8
Bemaßungen_TC_020513_DIN_
 62
     7
100
AcDbPoint
 10
106.620346784236
 20
167.1989721471496
 30
0.0
  0
POINT
  5
A5
330
1F
100
AcDbEntity
  8
Bemaßungen_TC_020513_DIN_
 62
     7
100
AcDbPoint
 10
72.29634678423577
 20
167.1989721471496
 30
0.0
  0
POINT
  5
A6
330
1F
100
AcDbEntity
  8
Bemaßungen_TC_020513_DIN_
 62
     7
100
AcDbPoint
 10
149.458346784236
 20
84.36612943467532
 30
0.0
  0
POINT
  5
A7
330
1F
100
AcDbEntity
  8
Bemaßungen_TC_020513_DIN_
 62
     7
100
AcDbPoint
 10
29.4583467842358
 20
84.36612943467532
 30
0.0
  0
POINT
  5
A8
330
1F
100
AcDbEntity
  8
Bemaßungen_TC_020513_DIN_
 62
     7
100
AcDbPoint
 10
246.951398830789
 20
106.1865061565726
 30
0.0
  0
POINT
  5
A9
330
1F
100
AcDbEntity
  8
Bemaßungen_TC_020513_DIN_
 62
     7
100
AcDbPoint
 10
203.951398830789
 20
106.1865061565726
 30
0.0
  0
POINT
  5
AA
330
1F
100
AcDbEntity
  8
Bemaßungen_TC_020513_DIN_
 62
     7
100
AcDbPoint
 10
21.4583467842358
 20
74.1989721471499
 30
0.0
  0
POINT
  5
AB
330
1F
100
AcDbEntity
  8
Bemaßungen_TC_020513_DIN_
 62
     7
100
AcDbPoint
 10
157.458346784236
 20
74.1989721471499
 30
0.0
  0
POINT
  5
AC
330
1F
100
AcDbEntity
  8
Bemaßungen_TC_020513_DIN_
 62
     7
100
AcDbPoint
 10
277.9485559923311
 20
74.1989721471499
 30
0.0
  0
POINT
  5
AD
330
1F
100
AcDbEntity
  8
Bemaßungen_TC_020513_DIN_
 62
     7
100
AcDbPoint
 10
203.9013988307889
 20
69.4489721471499
 30
0.0
  0
LWPOLYLINE
  5
14E
330
1F
100
AcDbEntity
  8
Mittellinie_TC_020513_DIN_
  6
CHAIN
 62
     7
100
AcDbPolyline
 90
        2
 70
     0
 43
0.25
 10
159.708346784236
 20
74.1989721471499
 10
146.993688484889
 20
74.1989721471499
  0
LWPOLYLINE
  5
14F
330
1F
100
AcDbEntity
  8
Mittellinie_TC_020513_DIN_
  6
CHAIN
 62
     7
100
AcDbPolyline
 90
        2
 70
     0
 43
0.25
 10
31.0975811374837
 20
74.1989721471499
 10
19.2083467842358
 20
74.1989721471499
  0
LWPOLYLINE
  5
150
330
1F
100
AcDbEntity
  8
Mittellinie_TC_020513_DIN_
  6
CHAIN
 62
     7
100
AcDbPolyline
 90
        2
 70
     0
 43
0.25
 10
89.4583467842358
 20
166.1989721471496
 10
89.4583467842358
 20
41.22176187585352
  0
LWPOLYLINE
  5
151
330
1F
100
AcDbEntity
  8
Mittellinie_TC_020513_DIN_
  6
CHAIN
 62
     7
100
AcDbPolyline
 90
        2
 70
     0
 43
0.25
 10
225.451398830805
 20
169.6989721471496
 10
225.451398830805
 20
63.24332517697702
  0
LWPOLYLINE
  5
152
330
1F
100
AcDbEntity
  8
Sichtbare_Kanten_TC_020513_DIN_
  6
Continuous
 62
     7
100
AcDbPolyline
 90
        2
 70
     0
 43
0.5
 10
204.524622135492
 20
85.02219545185332
 10
204.009977474552
 20
84.50755079091272
  0
LWPOLYLINE
  5
153
330
1F
100
AcDbEntity
  8
Sichtbare_Kanten_TC_020513_DIN_
  6
Continuous
 62
     7
100
AcDbPolyline
 90
        2
 70
     0
 43
0.5
 10
204.009977474552
 20
85.8903935033872
 10
204.524622135493
 20
85.37574884244663
  0
LWPOLYLINE
  5
154
330
1F
100
AcDbEntity
  8
Sichtbare_Kanten_TC_020513_DIN_
  6
Continuous
 62
     7
100
AcDbPolyline
 90
        2
 70
     0
 43
0.5
 10
224.300837969608
 20
90.46612943467562
 10
224.300837969608
 20
89.93181485962461
  0
LWPOLYLINE
  5
155
330
1F
100
AcDbEntity
  8
Sichtbare_Kanten_TC_020513_DIN_
  6
Continuous
 62
     7
100
AcDbPolyline
 90
        2
 70
     0
 43
0.5
 10
224.300837969608
 20
87.96612943467562
 10
224.300837969608
 20
87.43181485962461
  0
LWPOLYLINE
  5
156
330
1F
100
AcDbEntity
  8
Sichtbare_Kanten_TC_020513_DIN_
  6
Continuous
 62
     7
100
AcDbPolyline
 90
        2
 70
     0
 43
0.5
 10
224.300837969608
 20
85.46612943467531
 10
224.300837969608
 20
84.93181485962461
  0
LWPOLYLINE
  5
157
330
1F
100
AcDbEntity
  8
Sichtbare_Kanten_TC_020513_DIN_
  6
Continuous
 62
     7
100
AcDbPolyline
 90
        2
 70
     0
 43
0.5
 10
204.524622135492
 20
90.0221954518536
 10
204.009977474552
 20
89.5075507909126
  0
LWPOLYLINE
  5
158
330
1F
100
AcDbEntity
  8
Sichtbare_Kanten_TC_020513_DIN_
  6
Continuous
 62
     7
100
AcDbPolyline
 90
        2
 70
     0
 43
0.5
 10
203.951398830789
 20
91.94897214714962
 10
209.9513988307871
 20
91.94897214714962
  0
LWPOLYLINE
  5
159
330
1F
100
AcDbEntity
  8
Sichtbare_Kanten_TC_020513_DIN_
  6
Continuous
 62
     7
100
AcDbPolyline
 90
        2
 70
     0
 43
0.5
 10
204.524622135492
 20
92.5221954518536
 10
203.951398830789
 20
91.94897214714962
  0
LWPOLYLINE
  5
15A
330
1F
100
AcDbEntity
  8
Sichtbare_Kanten_TC_020513_DIN_
  6
Continuous
 62
     7
100
AcDbPolyline
 90
        2
 70
     0
 43
0.5
 10
203.951398830789
 20
93.44897214714962
 10
204.524622135493
 20
92.87574884244663
  0
LWPOLYLINE
  5
15B
330
1F
100
AcDbEntity
  8
Sichtbare_Kanten_TC_020513_DIN_
  6
Continuous
 62
     7
100
AcDbPolyline
 90
        2
 70
     0
 43
0.5
 10
209.9513988307871
 20
93.44897214714962
 10
203.951398830789
 20
93.44897214714962
  0
LWPOLYLINE
  5
15C
330
1F
100
AcDbEntity
  8
Sichtbare_Kanten_TC_020513_DIN_
  6
Continuous
 62
     7
100
AcDbPolyline
 90
        2
 70
     0
 43
0.5
 10
203.951398830789
 20
94.44897214714962
 10
209.9513988307871
 20
94.44897214714962
  0
LWPOLYLINE
  5
15D
330
1F
100
AcDbEntity
  8
Sichtbare_Kanten_TC_020513_DIN_
  6
Continuous
 62
     7
100
AcDbPolyline
 90
        2
 70
     0
 43
0.5
 10
204.524622135492
 20
95.0221954518536
 10
203.951398830789
 20
94.44897214714962
  0
LWPOLYLINE
  5
15E
330
1F
100
AcDbEntity
  8
Sichtbare_Kanten_TC_020513_DIN_
  6
Continuous
 62
     7
100
AcDbPolyline
 90
        2
 70
     0
 43
0.5
 10
203.951398830789
 20
95.94897214714962
 10
204.524622135493
 20
95.37574884244663
  0
LWPOLYLINE
  5
15F
330
1F
100
AcDbEntity
  8
Sichtbare_Kanten_TC_020513_DIN_
  6
Continuous
 62
     7
100
AcDbPolyline
 90
        2
 70
     0
 43
0.5
 10
209.9513988307871
 20
95.94897214714962
 10
203.951398830789
 20
95.94897214714962
  0
LWPOLYLINE
  5
160
330
1F
100
AcDbEntity
  8
Sichtbare_Kanten_TC_020513_DIN_
  6
Continuous
 62
     7
100
AcDbPolyline
 90
        2
 70
     0
 43
0.5
 10
203.951398830789
 20
96.94897214714962
 10
209.9513988307871
 20
96.94897214714962
  0
LWPOLYLINE
  5
161
330
1F
100
AcDbEntity
  8
Sichtbare_Kanten_TC_020513_DIN_
  6
Continuous
 62
     7
100
AcDbPolyline
 90
        2
 70
     0
 43
0.5
 10
204.524622135492
 20
97.5221954518536
 10
203.951398830789
 20
96.94897214714962
  0
LWPOLYLINE
  5
162
330
1F
100
AcDbEntity
  8
Sichtbare_Kanten_TC_020513_DIN_
  6
Continuous
 62
     7
100
AcDbPolyline
 90
        2
 70
     0
 43
0.5
 10
203.951398830789
 20
98.44897214714962
 10
204.524622135493
 20
97.87574884244663
  0
LWPOLYLINE
  5
163
330
1F
100
AcDbEntity
  8
Sichtbare_Kanten_TC_020513_DIN_
  6
Continuous
 62
     7
100
AcDbPolyline
 90
        2
 70
     0
 43
0.5
 10
209.9513988307871
 20
98.44897214714962
 10
203.951398830789
 20
98.44897214714962
  0
LWPOLYLINE
  5
164
330
1F
100
AcDbEntity
  8
Sichtbare_Kanten_TC_020513_DIN_
  6
Continuous
 62
     7
100
AcDbPolyline
 90
        2
 70
     0
 43
0.5
 10
204.009977474552
 20
90.89039350338763
 10
204.524622135493
 20
90.37574884244663
  0
LWPOLYLINE
  5
165
330
1F
100
AcDbEntity
  8
Sichtbare_Kanten_TC_020513_DIN_
  6
Continuous
 62
     7
100
AcDbPolyline
 90
        2
 70
     0
 43
0.5
 10
204.009977474552
 20
88.39039350338763
 10
204.524622135493
 20
87.87574884244663
  0
LWPOLYLINE
  5
166
330
1F
100
AcDbEntity
  8
Sichtbare_Kanten_TC_020513_DIN_
  6
Continuous
 62
     7
100
AcDbPolyline
 90
        2
 70
     0
 43
0.5
 10
204.524622135493
 20
87.5221954518536
 10
204.009977474552
 20
87.0075507909126
  0
LWPOLYLINE
  5
167
330
1F
100
AcDbEntity
  8
Sichtbare_Kanten_TC_020513_DIN_
  6
Continuous
 62
     7
100
AcDbPolyline
 90
        2
 70
     0
 43
0.5
 10
224.300837969608
 20
91.94897214714962
 10
209.9513988307871
 20
91.94897214714962
  0
LWPOLYLINE
  5
168
330
1F
100
AcDbEntity
  8
Sichtbare_Kanten_TC_020513_DIN_
  6
Continuous
 62
     7
100
AcDbPolyline
 90
        2
 70
     0
 43
0.5
 10
224.300837969608
 20
93.44897214714962
 10
224.300837969608
 20
91.94897214714962
  0
LWPOLYLINE
  5
169
330
1F
100
AcDbEntity
  8
Sichtbare_Kanten_TC_020513_DIN_
  6
Continuous
 62
     7
100
AcDbPolyline
 90
        2
 70
     0
 43
0.5
 10
209.9513988307871
 20
93.44897214714962
 10
224.300837969608
 20
93.44897214714962
  0
LWPOLYLINE
  5
16A
330
1F
100
AcDbEntity
  8
Sichtbare_Kanten_TC_020513_DIN_
  6
Continuous
 62
     7
100
AcDbPolyline
 90
        2
 70
     0
 43
0.5
 10
224.300837969608
 20
94.44897214714962
 10
209.9513988307871
 20
94.44897214714962
  0
LWPOLYLINE
  5
16B
330
1F
100
AcDbEntity
  8
Sichtbare_Kanten_TC_020513_DIN_
  6
Continuous
 62
     7
100
AcDbPolyline
 90
        2
 70
     0
 43
0.5
 10
224.300837969608
 20
95.94897214714962
 10
224.300837969608
 20
94.44897214714962
  0
LWPOLYLINE
  5
16C
330
1F
100
AcDbEntity
  8
Sichtbare_Kanten_TC_020513_DIN_
  6
Continuous
 62
     7
100
AcDbPolyline
 90
        2
 70
     0
 43
0.5
 10
209.9513988307871
 20
95.94897214714962
 10
224.300837969608
 20
95.94897214714962
  0
LWPOLYLINE
  5
16D
330
1F
100
AcDbEntity
  8
Sichtbare_Kanten_TC_020513_DIN_
  6
Continuous
 62
     7
100
AcDbPolyline
 90
        2
 70
     0
 43
0.5
 10
224.300837969608
 20
96.94897214714962
 10
209.9513988307871
 20
96.94897214714962
  0
LWPOLYLINE
  5
16E
330
1F
100
AcDbEntity
  8
Sichtbare_Kanten_TC_020513_DIN_
  6
Continuous
 62
     7
100
AcDbPolyline
 90
        2
 70
     0
 43
0.5
 10
224.300837969608
 20
98.44897214714962
 10
224.300837969608
 20
96.94897214714962
  0
LWPOLYLINE
  5
16F
330
1F
100
AcDbEntity
  8
Sichtbare_Kanten_TC_020513_DIN_
  6
Continuous
 62
     7
100
AcDbPolyline
 90
        2
 70
     0
 43
0.5
 10
209.9513988307871
 20
98.44897214714962
 10
224.300837969608
 20
98.44897214714962
  0
LWPOLYLINE
  5
170
330
1F
100
AcDbEntity
  8
Sichtbare_Kanten_TC_020513_DIN_
  6
Continuous
 62
     7
100
AcDbPolyline
 90
        2
 70
     0
 43
0.5
 10
246.378175526086
 20
85.02219545185332
 10
246.892820187026
 20
84.50755079091272
  0
LWPOLYLINE
  5
171
330
1F
100
AcDbEntity
  8
Sichtbare_Kanten_TC_020513_DIN_
  6
Continuous
 62
     7
100
AcDbPolyline
 90
        2
 70
     0
 43
0.5
 10
246.892820187026
 20
88.39039350338763
 10
246.378175526086
 20
87.87574884244663
  0
LWPOLYLINE
  5
172
330
1F
100
AcDbEntity
  8
Sichtbare_Kanten_TC_020513_DIN_
  6
Continuous
 62
     7
100
AcDbPolyline
 90
        2
 70
     0
 43
0.5
 10
246.378175526086
 20
90.0221954518536
 10
246.892820187026
 20
89.5075507909126
  0
LWPOLYLINE
  5
173
330
1F
100
AcDbEntity
  8
Sichtbare_Kanten_TC_020513_DIN_
  6
Continuous
 62
     7
100
AcDbPolyline
 90
        2
 70
     0
 43
0.5
 10
246.378175526086
 20
92.5221954518536
 10
246.951398830789
 20
91.94897214714962
  0
LWPOLYLINE
  5
174
330
1F
100
AcDbEntity
  8
Sichtbare_Kanten_TC_020513_DIN_
  6
Continuous
 62
     7
100
AcDbPolyline
 90
        2
 70
     0
 43
0.5
 10
240.9513988307871
 20
91.94897214714962
 10
246.951398830789
 20
91.94897214714962
  0
LWPOLYLINE
  5
175
330
1F
100
AcDbEntity
  8
Sichtbare_Kanten_TC_020513_DIN_
  6
Continuous
 62
     7
100
AcDbPolyline
 90
        2
 70
     0
 43
0.5
 10
246.951398830789
 20
93.44897214714962
 10
240.9513988307871
 20
93.44897214714962
  0
LWPOLYLINE
  5
176
330
1F
100
AcDbEntity
  8
Sichtbare_Kanten_TC_020513_DIN_
  6
Continuous
 62
     7
100
AcDbPolyline
 90
        2
 70
     0
 43
0.5
 10
246.951398830789
 20
93.44897214714962
 10
246.378175526086
 20
92.87574884244663
  0
LWPOLYLINE
  5
177
330
1F
100
AcDbEntity
  8
Sichtbare_Kanten_TC_020513_DIN_
  6
Continuous
 62
     7
100
AcDbPolyline
 90
        2
 70
     0
 43
0.5
 10
246.378175526086
 20
95.0221954518536
 10
246.951398830789
 20
94.44897214714962
  0
LWPOLYLINE
  5
178
330
1F
100
AcDbEntity
  8
Sichtbare_Kanten_TC_020513_DIN_
  6
Continuous
 62
     7
100
AcDbPolyline
 90
        2
 70
     0
 43
0.5
 10
240.9513988307871
 20
94.44897214714962
 10
246.951398830789
 20
94.44897214714962
  0
LWPOLYLINE
  5
179
330
1F
100
AcDbEntity
  8
Sichtbare_Kanten_TC_020513_DIN_
  6
Continuous
 62
     7
100
AcDbPolyline
 90
        2
 70
     0
 43
0.5
 10
246.951398830789
 20
95.94897214714962
 10
240.9513988307871
 20
95.94897214714962
  0
LWPOLYLINE
  5
17A
330
1F
100
AcDbEntity
  8
Sichtbare_Kanten_TC_020513_DIN_
  6
Continuous
 62
     7
100
AcDbPolyline
 90
        2
 70
     0
 43
0.5
 10
246.951398830789
 20
95.94897214714962
 10
246.378175526086
 20
95.37574884244663
  0
LWPOLYLINE
  5
17B
330
1F
100
AcDbEntity
  8
Sichtbare_Kanten_TC_020513_DIN_
  6
Continuous
 62
     7
100
AcDbPolyline
 90
        2
 70
     0
 43
0.5
 10
246.378175526086
 20
97.5221954518536
 10
246.951398830789
 20
96.94897214714962
  0
LWPOLYLINE
  5
17C
330
1F
100
AcDbEntity
  8
Sichtbare_Kanten_TC_020513_DIN_
  6
Continuous
 62
     7
100
AcDbPolyline
 90
        2
 70
     0
 43
0.5
 10
240.9513988307871
 20
96.94897214714962
 10
246.951398830789
 20
96.94897214714962
  0
LWPOLYLINE
  5
17D
330
1F
100
AcDbEntity
  8
Sichtbare_Kanten_TC_020513_DIN_
  6
Continuous
 62
     7
100
AcDbPolyline
 90
        2
 70
     0
 43
0.5
 10
246.951398830789
 20
98.44897214714962
 10
240.9513988307871
 20
98.44897214714962
  0
LWPOLYLINE
  5
17E
330
1F
100
AcDbEntity
  8
Sichtbare_Kanten_TC_020513_DIN_
  6
Continuous
 62
     7
100
AcDbPolyline
 90
        2
 70
     0
 43
0.5
 10
246.951398830789
 20
98.44897214714962
 10
246.378175526086
 20
97.87574884244663
  0
LWPOLYLINE
  5
17F
330
1F
100
AcDbEntity
  8
Sichtbare_Kanten_TC_020513_DIN_
  6
Continuous
 62
     7
100
AcDbPolyline
 90
        2
 70
     0
 43
0.5
 10
246.892820187026
 20
90.89039350338763
 10
246.378175526086
 20
90.37574884244663
  0
LWPOLYLINE
  5
180
330
1F
100
AcDbEntity
  8
Sichtbare_Kanten_TC_020513_DIN_
  6
Continuous
 62
     7
100
AcDbPolyline
 90
        2
 70
     0
 43
0.5
 10
226.601959691967
 20
89.93181485962461
 10
226.601959691967
 20
90.46612943467562
  0
LWPOLYLINE
  5
181
330
1F
100
AcDbEntity
  8
Sichtbare_Kanten_TC_020513_DIN_
  6
Continuous
 62
     7
100
AcDbPolyline
 90
        2
 70
     0
 43
0.5
 10
246.378175526086
 20
87.5221954518536
 10
246.892820187026
 20
87.0075507909126
  0
LWPOLYLINE
  5
182
330
1F
100
AcDbEntity
  8
Sichtbare_Kanten_TC_020513_DIN_
  6
Continuous
 62
     7
100
AcDbPolyline
 90
        2
 70
     0
 43
0.5
 10
226.601959691966
 20
98.44897214714962
 10
240.9513988307871
 20
98.44897214714962
  0
LWPOLYLINE
  5
183
330
1F
100
AcDbEntity
  8
Sichtbare_Kanten_TC_020513_DIN_
  6
Continuous
 62
     7
100
AcDbPolyline
 90
        2
 70
     0
 43
0.5
 10
226.601959691966
 20
96.94897214714962
 10
226.601959691966
 20
98.44897214714962
  0
LWPOLYLINE
  5
184
330
1F
100
AcDbEntity
  8
Sichtbare_Kanten_TC_020513_DIN_
  6
Continuous
 62
     7
100
AcDbPolyline
 90
        2
 70
     0
 43
0.5
 10
240.9513988307871
 20
96.94897214714962
 10
226.601959691966
 20
96.94897214714962
  0
LWPOLYLINE
  5
185
330
1F
100
AcDbEntity
  8
Sichtbare_Kanten_TC_020513_DIN_
  6
Continuous
 62
     7
100
AcDbPolyline
 90
        2
 70
     0
 43
0.5
 10
226.601959691966
 20
95.94897214714962
 10
240.9513988307871
 20
95.94897214714962
  0
LWPOLYLINE
  5
186
330
1F
100
AcDbEntity
  8
Sichtbare_Kanten_TC_020513_DIN_
  6
Continuous
 62
     7
100
AcDbPolyline
 90
        2
 70
     0
 43
0.5
 10
226.601959691966
 20
94.44897214714962
 10
226.601959691966
 20
95.94897214714962
  0
LWPOLYLINE
  5
187
330
1F
100
AcDbEntity
  8
Sichtbare_Kanten_TC_020513_DIN_
  6
Continuous
 62
     7
100
AcDbPolyline
 90
        2
 70
     0
 43
0.5
 10
240.9513988307871
 20
94.44897214714962
 10
226.601959691966
 20
94.44897214714962
  0
LWPOLYLINE
  5
188
330
1F
100
AcDbEntity
  8
Sichtbare_Kanten_TC_020513_DIN_
  6
Continuous
 62
     7
100
AcDbPolyline
 90
        2
 70
     0
 43
0.5
 10
226.601959691966
 20
93.44897214714962
 10
240.9513988307871
 20
93.44897214714962
  0
LWPOLYLINE
  5
189
330
1F
100
AcDbEntity
  8
Sichtbare_Kanten_TC_020513_DIN_
  6
Continuous
 62
     7
100
AcDbPolyline
 90
        2
 70
     0
 43
0.5
 10
226.601959691966
 20
91.94897214714962
 10
226.601959691966
 20
93.44897214714962
  0
LWPOLYLINE
  5
18A
330
1F
100
AcDbEntity
  8
Sichtbare_Kanten_TC_020513_DIN_
  6
Continuous
 62
     7
100
AcDbPolyline
 90
        2
 70
     0
 43
0.5
 10
240.9513988307871
 20
91.94897214714962
 10
226.601959691966
 20
91.94897214714962
  0
LWPOLYLINE
  5
18B
330
1F
100
AcDbEntity
  8
Sichtbare_Kanten_TC_020513_DIN_
  6
Continuous
 62
     7
100
AcDbPolyline
 90
        2
 70
     0
 43
0.5
 10
226.601959691967
 20
87.43181485962461
 10
226.601959691967
 20
87.96612943467562
  0
LWPOLYLINE
  5
18C
330
1F
100
AcDbEntity
  8
Sichtbare_Kanten_TC_020513_DIN_
  6
Continuous
 62
     7
100
AcDbPolyline
 90
        2
 70
     0
 43
0.5
 10
246.892820187026
 20
85.89039350338732
 10
246.378175526086
 20
85.37574884244663
  0
LWPOLYLINE
  5
18D
330
1F
100
AcDbEntity
  8
Sichtbare_Kanten_TC_020513_DIN_
  6
Continuous
 62
     7
100
AcDbPolyline
 90
        2
 70
     0
 43
0.5
 10
226.601959691967
 20
84.93181485962461
 10
226.601959691967
 20
85.46612943467531
  0
LWPOLYLINE
  5
18E
330
1F
100
AcDbEntity
  8
Sichtbare_Kanten_TC_020513_DIN_
  6
Continuous
 62
     7
100
AcDbPolyline
 90
        2
 70
     0
 43
0.5
 10
245.951398830788
 20
109.6989721471496
 10
246.951398830789
 20
108.6989721471496
  0
LWPOLYLINE
  5
18F
330
1F
100
AcDbEntity
  8
Sichtbare_Kanten_TC_020513_DIN_
  6
Continuous
 62
     7
100
AcDbPolyline
 90
        2
 70
     0
 43
0.5
 10
245.951398830788
 20
109.6989721471496
 10
245.951398830802
 20
141.1989721471496
  0
LWPOLYLINE
  5
190
330
1F
100
AcDbEntity
  8
Sichtbare_Kanten_TC_020513_DIN_
  6
Continuous
 62
     7
100
AcDbPolyline
 90
        2
 70
     0
 43
0.5
 10
246.9513988307909
 20
142.1989721471496
 10
245.951398830802
 20
141.1989721471496
  0
LWPOLYLINE
  5
191
330
1F
100
AcDbEntity
  8
Sichtbare_Kanten_TC_020513_DIN_
  6
Continuous
 62
     7
100
AcDbPolyline
 90
        2
 70
     0
 43
0.5
 10
203.951398830789
 20
108.6989721471496
 10
204.951398830788
 20
109.6989721471496
  0
LWPOLYLINE
  5
192
330
1F
100
AcDbEntity
  8
Sichtbare_Kanten_TC_020513_DIN_
  6
Continuous
 62
     7
100
AcDbPolyline
 90
        2
 70
     0
 43
0.5
 10
204.951398830802
 20
141.1989721471496
 10
204.951398830788
 20
109.6989721471496
  0
LWPOLYLINE
  5
193
330
1F
100
AcDbEntity
  8
Sichtbare_Kanten_TC_020513_DIN_
  6
Continuous
 62
     7
100
AcDbPolyline
 90
        2
 70
     0
 43
0.5
 10
204.951398830802
 20
141.1989721471496
 10
203.9513988307909
 20
142.1989721471496
  0
LWPOLYLINE
  5
194
330
1F
100
AcDbEntity
  8
Sichtbare_Kanten_TC_020513_DIN_
  6
Continuous
 62
     7
100
AcDbPolyline
 90
        2
 70
     0
 43
0.5
 10
246.951398830789
 20
103.6740401659946
 10
246.951398830789
 20
108.6989721471496
  0
LWPOLYLINE
  5
195
330
1F
100
AcDbEntity
  8
Sichtbare_Kanten_TC_020513_DIN_
  6
Continuous
 62
     7
100
AcDbPolyline
 90
        2
 70
     0
 43
0.5
 10
246.9513988307909
 20
142.1989721471496
 10
246.9513988307909
 20
145.6989721471496
  0
LWPOLYLINE
  5
196
330
1F
100
AcDbEntity
  8
Sichtbare_Kanten_TC_020513_DIN_
  6
Continuous
 62
     7
100
AcDbPolyline
 90
        2
 70
     0
 43
0.5
 10
203.951398830789
 20
108.6989721471496
 10
203.951398830789
 20
103.6740401659946
  0
LWPOLYLINE
  5
197
330
1F
100
AcDbEntity
  8
Sichtbare_Kanten_TC_020513_DIN_
  6
Continuous
 62
     7
100
AcDbPolyline
 90
        2
 70
     0
 43
0.5
 10
203.9513988307909
 20
145.6989721471496
 10
203.9513988307909
 20
142.1989721471496
  0
LWPOLYLINE
  5
198
330
1F
100
AcDbEntity
  8
Sichtbare_Kanten_TC_020513_DIN_
  6
Continuous
 62
     7
100
AcDbPolyline
 90
        2
 70
     0
 43
0.5
 10
240.9513988307871
 20
104.1989721471496
 10
209.9513988307871
 20
104.1989721471496
  0
LWPOLYLINE
  5
199
330
1F
100
AcDbEntity
  8
Sichtbare_Kanten_TC_020513_DIN_
  6
Continuous
 62
     7
100
AcDbPolyline
 90
        2
 70
     0
 43
0.5
 10
202.951398830805
 20
141.1989721471496
 10
202.951398830805
 20
148.6989721471496
  0
LWPOLYLINE
  5
19A
330
1F
100
AcDbEntity
  8
Sichtbare_Kanten_TC_020513_DIN_
  6
Continuous
 62
     7
100
AcDbPolyline
 90
        2
 70
     0
 43
0.5
 10
247.951398830805
 20
141.1989721471496
 10
247.951398830805
 20
148.6989721471496
  0
LWPOLYLINE
  5
19B
330
1F
100
AcDbEntity
  8
Sichtbare_Kanten_TC_020513_DIN_
  6
Continuous
 62
     7
100
AcDbPolyline
 90
        2
 70
     0
 43
0.5
 10
204.951398830802
 20
141.1989721471496
 10
202.951398830805
 20
141.1989721471496
  0
LWPOLYLINE
  5
19C
330
1F
100
AcDbEntity
  8
Sichtbare_Kanten_TC_020513_DIN_
  6
Continuous
 62
     7
100
AcDbPolyline
 90
        2
 70
     0
 43
0.5
 10
247.951398830805
 20
141.1989721471496
 10
245.951398830802
 20
141.1989721471496
  0
LWPOLYLINE
  5
19D
330
1F
100
AcDbEntity
  8
Sichtbare_Kanten_TC_020513_DIN_
  6
Continuous
 62
     7
100
AcDbPolyline
 90
        2
 70
     0
 43
0.5
 10
206.9513988307909
 20
148.6989721471496
 10
202.951398830805
 20
148.6989721471496
  0
LWPOLYLINE
  5
19E
330
1F
100
AcDbEntity
  8
Sichtbare_Kanten_TC_020513_DIN_
  6
Continuous
 62
     7
100
AcDbPolyline
 90
        2
 70
     0
 43
0.5
 10
247.951398830805
 20
148.6989721471496
 10
243.9513988307909
 20
148.6989721471496
  0
LWPOLYLINE
  5
19F
330
1F
100
AcDbEntity
  8
Sichtbare_Kanten_TC_020513_DIN_
  6
Continuous
 62
     7
100
AcDbPolyline
 90
        2
 70
     0
 43
0.5
 10
207.231427681545
 20
148.6989721471496
 10
209.95139883079
 20
148.6989721471496
  0
LWPOLYLINE
  5
1A0
330
1F
100
AcDbEntity
  8
Sichtbare_Kanten_TC_020513_DIN_
  6
Continuous
 62
     7
100
AcDbPolyline
 90
        2
 70
     0
 43
0.5
 10
206.9513988307909
 20
148.6989721471496
 10
207.231427681545
 20
148.6989721471496
  0
LWPOLYLINE
  5
1A1
330
1F
100
AcDbEntity
  8
Sichtbare_Kanten_TC_020513_DIN_
  6
Continuous
 62
     7
100
AcDbPolyline
 90
        2
 70
     0
 43
0.5
 10
243.671369980037
 20
148.6989721471496
 10
243.9513988307909
 20
148.6989721471496
  0
LWPOLYLINE
  5
1A2
330
1F
100
AcDbEntity
  8
Sichtbare_Kanten_TC_020513_DIN_
  6
Continuous
 62
     7
100
AcDbPolyline
 90
        2
 70
     0
 43
0.5
 10
240.95139883079
 20
148.6989721471496
 10
243.671369980037
 20
148.6989721471496
  0
LWPOLYLINE
  5
1A3
330
1F
100
AcDbEntity
  8
Sichtbare_Kanten_TC_020513_DIN_
  6
Continuous
 62
     7
100
AcDbPolyline
 90
        2
 70
     0
 43
0.5
 10
240.95139883079
 20
148.6989721471496
 10
209.95139883079
 20
148.6989721471496
  0
LWPOLYLINE
  5
1A4
330
1F
100
AcDbEntity
  8
Sichtbare_Kanten_TC_020513_DIN_
  6
Continuous
 62
     7
100
AcDbPolyline
 90
        2
 70
     0
 43
0.5
 10
209.9513988307871
 20
66.6989721471499
 10
203.9013988307889
 20
66.6989721471499
  0
LWPOLYLINE
  5
1A5
330
1F
100
AcDbEntity
  8
Sichtbare_Kanten_TC_020513_DIN_
  6
Continuous
 62
     7
100
AcDbPolyline
 90
        2
 70
     0
 43
0.5
 10
203.9013988307889
 20
66.6989721471499
 10
203.9013988307889
 20
72.19897214715002
  0
LWPOLYLINE
  5
1A6
330
1F
100
AcDbEntity
  8
Sichtbare_Kanten_TC_020513_DIN_
  6
Continuous
 62
     7
100
AcDbPolyline
 90
        2
 70
     0
 43
0.5
 10
247.0013988307891
 20
66.6989721471499
 10
243.865293611606
 20
66.6989721471499
  0
LWPOLYLINE
  5
1A7
330
1F
100
AcDbEntity
  8
Sichtbare_Kanten_TC_020513_DIN_
  6
Continuous
 62
     7
100
AcDbPolyline
 90
        2
 70
     0
 43
0.5
 10
247.0013988307891
 20
66.6989721471499
 10
247.0013988307891
 20
72.19897214715002
  0
LWPOLYLINE
  5
1A8
330
1F
100
AcDbEntity
  8
Sichtbare_Kanten_TC_020513_DIN_
  6
Continuous
 62
     7
100
AcDbPolyline
 90
        2
 70
     0
 43
0.5
 10
240.9513988307871
 20
72.19897214715002
 10
247.0013988307891
 20
72.19897214715002
  0
LWPOLYLINE
  5
1A9
330
1F
100
AcDbEntity
  8
Sichtbare_Kanten_TC_020513_DIN_
  6
Continuous
 62
     7
100
AcDbPolyline
 90
        2
 70
     0
 43
0.5
 10
203.9013988307889
 20
72.19897214715002
 10
209.9513988307871
 20
72.19897214715002
  0
LWPOLYLINE
  5
1AA
330
1F
100
AcDbEntity
  8
Sichtbare_Kanten_TC_020513_DIN_
  6
Continuous
 62
     7
100
AcDbPolyline
 90
        2
 70
     0
 43
0.5
 10
240.9513988307871
 20
72.19897214715002
 10
240.622113045059
 20
72.19897214715002
  0
LWPOLYLINE
  5
1AB
330
1F
100
AcDbEntity
  8
Sichtbare_Kanten_TC_020513_DIN_
  6
Continuous
 62
     7
100
AcDbPolyline
 90
        2
 70
     0
 43
0.5
 10
209.9513988307871
 20
66.6989721471499
 10
227.125014995996
 20
66.6989721471499
  0
LWPOLYLINE
  5
1AC
330
1F
100
AcDbEntity
  8
Sichtbare_Kanten_TC_020513_DIN_
  6
Continuous
 62
     7
100
AcDbPolyline
 90
        2
 70
     0
 43
0.5
 10
221.420269956638
 20
72.19897214715002
 10
209.9513988307871
 20
72.19897214715002
  0
LWPOLYLINE
  5
1AD
330
1F
100
AcDbEntity
  8
Sichtbare_Kanten_TC_020513_DIN_
  6
Continuous
 62
     7
100
AcDbPolyline
 90
        2
 70
     0
 43
0.5
 10
224.9513988307859
 20
57.19897214714991
 10
225.274306396641
 20
47.95210930434862
  0
LWPOLYLINE
  5
1AE
330
1F
100
AcDbEntity
  8
Sichtbare_Kanten_TC_020513_DIN_
  6
Continuous
 62
     7
100
AcDbPolyline
 90
        2
 70
     0
 43
0.5
 10
225.4513988307859
 20
57.19897214714991
 10
224.9513988307859
 20
57.19897214714991
  0
LWPOLYLINE
  5
1AF
330
1F
100
AcDbEntity
  8
Sichtbare_Kanten_TC_020513_DIN_
  6
Continuous
 62
     7
100
AcDbPolyline
 90
        2
 70
     0
 43
0.5
 10
228.91726775113
 20
63.88080818255242
 10
227.894513698027
 20
59.16869887282082
  0
LWPOLYLINE
  5
1B0
330
1F
100
AcDbEntity
  8
Sichtbare_Kanten_TC_020513_DIN_
  6
Continuous
 62
     7
100
AcDbPolyline
 90
        2
 70
     0
 43
0.5
 10
224.0021916799291
 20
69.938714099343
 10
228.53136739117
 20
65.23996585922671
  0
LWPOLYLINE
  5
1B1
330
1F
100
AcDbEntity
  8
Sichtbare_Kanten_TC_020513_DIN_
  6
Continuous
 62
     7
100
AcDbPolyline
 90
        2
 70
     0
 43
0.5
 10
247.4513988307859
 20
48.19897214714992
 10
247.501398830786
 20
48.19897214714992
  0
LWPOLYLINE
  5
1B2
330
1F
100
AcDbEntity
  8
Sichtbare_Kanten_TC_020513_DIN_
  6
Continuous
 62
     7
100
AcDbPolyline
 90
        2
 70
     0
 43
0.5
 10
247.4513988307859
 20
46.19897214714992
 10
247.4513988307859
 20
48.19897214714992
  0
LWPOLYLINE
  5
1B3
330
1F
100
AcDbEntity
  8
Sichtbare_Kanten_TC_020513_DIN_
  6
Continuous
 62
     7
100
AcDbPolyline
 90
        2
 70
     0
 43
0.5
 10
228.268755748182
 20
46.19897214714992
 10
247.4513988307859
 20
46.19897214714992
  0
LWPOLYLINE
  5
1B4
330
1F
100
AcDbEntity
  8
Sichtbare_Kanten_TC_020513_DIN_
  6
Continuous
 62
     7
100
AcDbPolyline
 90
        2
 70
     0
 43
0.5
 10
238.8350756220131
 20
73.36999956137453
 10
234.86691466173
 20
74.8852800298977
  0
LWPOLYLINE
  5
1B5
330
1F
100
AcDbEntity
  8
Sichtbare_Kanten_TC_020513_DIN_
  6
Continuous
 62
     7
100
AcDbPolyline
 90
        2
 70
     0
 43
0.5
 10
247.4513988307859
 20
60.19897214715001
 10
241.429316216694
 20
71.11430636049653
  0
LWPOLYLINE
  5
1B6
330
1F
100
AcDbEntity
  8
Sichtbare_Kanten_TC_020513_DIN_
  6
Continuous
 62
     7
100
AcDbPolyline
 90
        2
 70
     0
 43
0.5
 10
247.4513988307859
 20
58.19897214715001
 10
247.4513988307859
 20
60.19897214715001
  0
LWPOLYLINE
  5
1B7
330
1F
100
AcDbEntity
  8
Sichtbare_Kanten_TC_020513_DIN_
  6
Continuous
 62
     7
100
AcDbPolyline
 90
        2
 70
     0
 43
0.5
 10
247.501398830786
 20
58.19897214715001
 10
247.4513988307859
 20
58.19897214715001
  0
LWPOLYLINE
  5
1B8
330
1F
100
AcDbEntity
  8
Sichtbare_Kanten_TC_020513_DIN_
  6
Continuous
 62
     7
100
AcDbPolyline
 90
        2
 70
     0
 43
0.5
 10
269.182222357613
 20
45.15475441436301
 10
269.5295187129469
 20
47.12436992038752
  0
LWPOLYLINE
  5
1B9
330
1F
100
AcDbEntity
  8
Sichtbare_Kanten_TC_020513_DIN_
  6
Continuous
 62
     7
100
AcDbPolyline
 90
        2
 70
     0
 43
0.5
 10
257.501398830785
 20
46.19897214714992
 10
266.873900444616
 20
44.54634723589901
  0
LWPOLYLINE
  5
1BA
330
1F
100
AcDbEntity
  8
Sichtbare_Kanten_TC_020513_DIN_
  6
Continuous
 62
     7
100
AcDbPolyline
 90
        2
 70
     0
 43
0.5
 10
268.023766426933
 20
44.34359483901781
 10
266.873900444616
 20
44.54634723589901
  0
LWPOLYLINE
  5
1BB
330
1F
100
AcDbEntity
  8
Sichtbare_Kanten_TC_020513_DIN_
  6
Continuous
 62
     7
100
AcDbPolyline
 90
        2
 70
     0
 43
0.5
 10
257.50139806785
 20
46.19897262398712
 10
259.5054158977461
 20
46.19897262398712
  0
LWPOLYLINE
  5
1BC
330
1F
100
AcDbEntity
  8
Sichtbare_Kanten_TC_020513_DIN_
  6
Continuous
 62
     7
100
AcDbPolyline
 90
        2
 70
     0
 43
0.5
 10
267.5684931552841
 20
48.48557824794791
 10
268.717654481698
 20
48.28295010091512
  0
LWPOLYLINE
  5
1BD
330
1F
100
AcDbEntity
  8
Sichtbare_Kanten_TC_020513_DIN_
  6
Continuous
 62
     7
100
AcDbPolyline
 90
        2
 70
     0
 43
0.5
 10
267.5684931552841
 20
48.48557824794791
 10
259.9804542977901
 20
49.82355422918821
  0
LWPOLYLINE
  5
1BE
330
1F
100
AcDbEntity
  8
Sichtbare_Kanten_TC_020513_DIN_
  6
Continuous
 62
     7
100
AcDbPolyline
 90
        2
 70
     0
 43
0.5
 10
257.501398830785
 20
46.19897214714992
 10
247.501398830785
 20
46.19897214714992
  0
LWPOLYLINE
  5
1BF
330
1F
100
AcDbEntity
  8
Sichtbare_Kanten_TC_020513_DIN_
  6
Continuous
 62
     7
100
AcDbPolyline
 90
        2
 70
     0
 43
0.5
 10
247.501398830785
 20
60.19897214715001
 10
247.501398830785
 20
46.19897214714992
  0
LWPOLYLINE
  5
1C0
330
1F
100
AcDbEntity
  8
Sichtbare_Kanten_TC_020513_DIN_
  6
Continuous
 62
     7
100
AcDbPolyline
 90
        2
 70
     0
 43
0.5
 10
257.501398830785
 20
46.19897214714992
 10
257.501398830792
 20
60.19897214714991
  0
LWPOLYLINE
  5
1C1
330
1F
100
AcDbEntity
  8
Sichtbare_Kanten_TC_020513_DIN_
  6
Continuous
 62
     7
100
AcDbPolyline
 90
        2
 70
     0
 43
0.5
 10
247.501398830785
 20
60.19897214715001
 10
257.501398830792
 20
60.19897214714991
  0
LWPOLYLINE
  5
1C2
330
1F
100
AcDbEntity
  8
Sichtbare_Kanten_TC_020513_DIN_
  6
Continuous
 62
     7
100
AcDbPolyline
 90
        2
 70
     0
 43
0.5
 10
257.501398830792
 20
60.20934737193222
 10
257.499569398732
 20
60.19897214715001
  0
LWPOLYLINE
  5
1C3
330
1F
100
AcDbEntity
  8
Sichtbare_Kanten_TC_020513_DIN_
  6
Continuous
 62
     7
100
AcDbPolyline
 90
        2
 70
     0
 43
0.5
 10
259.549654431365
 20
58.02292876401082
 10
257.501398830792
 20
58.38409148977892
  0
LWPOLYLINE
  5
1C4
330
1F
100
AcDbEntity
  8
Sichtbare_Kanten_TC_020513_DIN_
  6
Continuous
 62
     7
100
AcDbPolyline
 90
        2
 70
     0
 43
0.5
 10
268.797336559674
 20
48.26558248345361
 10
268.7214002422301
 20
48.27897207085601
  0
LWPOLYLINE
  5
1C5
330
1F
100
AcDbEntity
  8
Sichtbare_Kanten_TC_020513_DIN_
  6
Continuous
 62
     7
100
AcDbPolyline
 90
        2
 70
     0
 43
0.5
 10
268.7214002422301
 20
48.27897207085601
 10
268.717652302167
 20
48.28295008484832
  0
LWPOLYLINE
  5
1C6
330
1F
100
AcDbEntity
  8
Sichtbare_Kanten_TC_020513_DIN_
  6
Continuous
 62
     7
100
AcDbPolyline
 90
        2
 70
     0
 43
0.5
 10
268.717654481698
 20
48.28295010091512
 10
259.549654431365
 20
58.02292876401082
  0
LWPOLYLINE
  5
1C7
330
1F
100
AcDbEntity
  8
Sichtbare_Kanten_TC_020513_DIN_
  6
Continuous
 62
     7
100
AcDbPolyline
 90
        2
 70
     0
 43
0.5
 10
259.549654431365
 20
58.02292876401082
 10
257.501398830792
 20
60.19897214714991
  0
LWPOLYLINE
  5
1C8
330
1F
100
AcDbEntity
  8
Sichtbare_Kanten_TC_020513_DIN_
  6
Continuous
 62
     7
100
AcDbPolyline
 90
        2
 70
     0
 43
0.5
 10
257.501398830792
 20
60.19897214714991
 10
257.501398830792
 20
60.20934737193222
  0
LWPOLYLINE
  5
1C9
330
1F
100
AcDbEntity
  8
Sichtbare_Kanten_TC_020513_DIN_
  6
Continuous
 62
     7
100
AcDbPolyline
 90
        2
 70
     0
 43
0.5
 10
203.951398830789
 20
98.44897214714962
 10
203.951398830789
 20
103.6740401659946
  0
LWPOLYLINE
  5
1CA
330
1F
100
AcDbEntity
  8
Sichtbare_Kanten_TC_020513_DIN_
  6
Continuous
 62
     7
100
AcDbPolyline
 90
        2
 70
     0
 43
0.5
 10
203.951398830789
 20
95.94897214714962
 10
203.951398830789
 20
96.94897214714962
  0
LWPOLYLINE
  5
1CB
330
1F
100
AcDbEntity
  8
Sichtbare_Kanten_TC_020513_DIN_
  6
Continuous
 62
     7
100
AcDbPolyline
 90
        2
 70
     0
 43
0.5
 10
203.951398830789
 20
93.44897214714962
 10
203.951398830789
 20
94.44897214714962
  0
LWPOLYLINE
  5
1CC
330
1F
100
AcDbEntity
  8
Sichtbare_Kanten_TC_020513_DIN_
  6
Continuous
 62
     7
100
AcDbPolyline
 90
        2
 70
     0
 43
0.5
 10
203.951398830789
 20
91.0318148596246
 10
203.951398830789
 20
91.94897214714962
  0
LWPOLYLINE
  5
1CD
330
1F
100
AcDbEntity
  8
Sichtbare_Kanten_TC_020513_DIN_
  6
Continuous
 62
     7
100
AcDbPolyline
 90
        2
 70
     0
 43
0.5
 10
203.951398830789
 20
86.0318148596246
 10
203.951398830789
 20
86.86612943467563
  0
LWPOLYLINE
  5
1CE
330
1F
100
AcDbEntity
  8
Sichtbare_Kanten_TC_020513_DIN_
  6
Continuous
 62
     7
100
AcDbPolyline
 90
        2
 70
     0
 43
0.5
 10
203.951398830789
 20
88.5318148596246
 10
203.951398830789
 20
89.36612943467563
  0
LWPOLYLINE
  5
1CF
330
1F
100
AcDbEntity
  8
Sichtbare_Kanten_TC_020513_DIN_
  6
Continuous
 62
     7
100
AcDbPolyline
 90
        2
 70
     0
 43
0.5
 10
203.951398830789
 20
72.19897214715002
 10
203.951398830789
 20
84.3661294346754
  0
LWPOLYLINE
  5
1D0
330
1F
100
AcDbEntity
  8
Sichtbare_Kanten_TC_020513_DIN_
  6
Continuous
 62
     7
100
AcDbPolyline
 90
        2
 70
     0
 43
0.5
 10
246.951398830789
 20
95.94897214714962
 10
246.951398830789
 20
96.94897214714962
  0
LWPOLYLINE
  5
1D1
330
1F
100
AcDbEntity
  8
Sichtbare_Kanten_TC_020513_DIN_
  6
Continuous
 62
     7
100
AcDbPolyline
 90
        2
 70
     0
 43
0.5
 10
246.951398830789
 20
93.44897214714962
 10
246.951398830789
 20
94.44897214714962
  0
LWPOLYLINE
  5
1D2
330
1F
100
AcDbEntity
  8
Sichtbare_Kanten_TC_020513_DIN_
  6
Continuous
 62
     7
100
AcDbPolyline
 90
        2
 70
     0
 43
0.5
 10
246.951398830789
 20
91.0318148596246
 10
246.951398830789
 20
91.94897214714962
  0
LWPOLYLINE
  5
1D3
330
1F
100
AcDbEntity
  8
Sichtbare_Kanten_TC_020513_DIN_
  6
Continuous
 62
     7
100
AcDbPolyline
 90
        2
 70
     0
 43
0.5
 10
246.951398830789
 20
86.0318148596246
 10
246.951398830789
 20
86.86612943467563
  0
LWPOLYLINE
  5
1D4
330
1F
100
AcDbEntity
  8
Sichtbare_Kanten_TC_020513_DIN_
  6
Continuous
 62
     7
100
AcDbPolyline
 90
        2
 70
     0
 43
0.5
 10
246.951398830789
 20
88.5318148596246
 10
246.951398830789
 20
89.36612943467563
  0
LWPOLYLINE
  5
1D5
330
1F
100
AcDbEntity
  8
Sichtbare_Kanten_TC_020513_DIN_
  6
Continuous
 62
     7
100
AcDbPolyline
 90
        2
 70
     0
 43
0.5
 10
246.951398830789
 20
98.44897214714962
 10
246.951398830789
 20
103.6740401659946
  0
LWPOLYLINE
  5
1D6
330
1F
100
AcDbEntity
  8
Sichtbare_Kanten_TC_020513_DIN_
  6
Continuous
 62
     7
100
AcDbPolyline
 90
        2
 70
     0
 43
0.5
 10
246.951398830789
 20
72.19897214715002
 10
246.951398830789
 20
84.3661294346754
  0
LWPOLYLINE
  5
1D7
330
1F
100
AcDbEntity
  8
Sichtbare_Kanten_TC_020513_DIN_
  6
Continuous
 62
     7
100
AcDbPolyline
 90
        2
 70
     0
 43
0.5
 10
207.451398830805
 20
167.6989721471496
 10
207.451398830805
 20
148.6989721471496
  0
LWPOLYLINE
  5
1D8
330
1F
100
AcDbEntity
  8
Sichtbare_Kanten_TC_020513_DIN_
  6
Continuous
 62
     7
100
AcDbPolyline
 90
        2
 70
     0
 43
0.5
 10
243.451398830805
 20
167.6989721471496
 10
243.451398830805
 20
148.6989721471496
  0
LWPOLYLINE
  5
1D9
330
1F
100
AcDbEntity
  8
Sichtbare_Kanten_TC_020513_DIN_
  6
Continuous
 62
     7
100
AcDbPolyline
 90
        2
 70
     0
 43
0.5
 10
207.451398830805
 20
167.6989721471496
 10
243.451398830805
 20
167.6989721471496
  0
LWPOLYLINE
  5
1DA
330
1F
100
AcDbEntity
  8
Sichtbare_Kanten_TC_020513_DIN_
  6
Continuous
 62
     7
100
AcDbPolyline
 90
        2
 70
     0
 43
0.5
 10
43.65947496999098
 20
44.59579322749031
 10
39.41976868893141
 20
46.19897214714992
  0
LWPOLYLINE
  5
1DB
330
1F
100
AcDbEntity
  8
Sichtbare_Kanten_TC_020513_DIN_
  6
Continuous
 62
     7
100
AcDbPolyline
 90
        2
 70
     0
 43
0.5
 10
139.49692487954
 20
46.19897214714992
 10
135.257218598481
 20
44.59579322749031
  0
LWPOLYLINE
  5
1DC
330
1F
100
AcDbEntity
  8
Sichtbare_Kanten_TC_020513_DIN_
  6
Continuous
 62
     7
100
AcDbPolyline
 90
        2
 70
     0
 43
0.5
 10
133.079025754355
 20
44.32840259202992
 10
45.83766781411669
 20
44.32840259202992
  0
LWPOLYLINE
  5
1DD
330
1F
100
AcDbEntity
  8
Sichtbare_Kanten_TC_020513_DIN_
  6
Continuous
 62
     7
100
AcDbPolyline
 90
        2
 70
     0
 43
0.5
 10
148.885123479532
 20
85.02219545185332
 10
149.399768140473
 20
84.5075507909126
  0
LWPOLYLINE
  5
1DE
330
1F
100
AcDbEntity
  8
Sichtbare_Kanten_TC_020513_DIN_
  6
Continuous
 62
     7
100
AcDbPolyline
 90
        2
 70
     0
 43
0.5
 10
29.5169254279985
 20
88.39039350338763
 10
30.03157008893908
 20
87.87574884244663
  0
LWPOLYLINE
  5
1DF
330
1F
100
AcDbEntity
  8
Sichtbare_Kanten_TC_020513_DIN_
  6
Continuous
 62
     7
100
AcDbPolyline
 90
        2
 70
     0
 43
0.5
 10
30.03157008893908
 20
87.5221954518536
 10
29.51692542799839
 20
87.0075507909126
  0
LWPOLYLINE
  5
1E0
330
1F
100
AcDbEntity
  8
Sichtbare_Kanten_TC_020513_DIN_
  6
Continuous
 62
     7
100
AcDbPolyline
 90
        2
 70
     0
 43
0.5
 10
30.03157008893908
 20
90.0221954518536
 10
29.51692542799839
 20
89.5075507909126
  0
LWPOLYLINE
  5
1E1
330
1F
100
AcDbEntity
  8
Sichtbare_Kanten_TC_020513_DIN_
  6
Continuous
 62
     7
100
AcDbPolyline
 90
        2
 70
     0
 43
0.5
 10
149.458346784236
 20
93.44897214714962
 10
143.458346784236
 20
93.44897214714962
  0
LWPOLYLINE
  5
1E2
330
1F
100
AcDbEntity
  8
Sichtbare_Kanten_TC_020513_DIN_
  6
Continuous
 62
     7
100
AcDbPolyline
 90
        2
 70
     0
 43
0.5
 10
149.458346784236
 20
93.44897214714962
 10
148.885123479532
 20
92.87574884244663
  0
LWPOLYLINE
  5
1E3
330
1F
100
AcDbEntity
  8
Sichtbare_Kanten_TC_020513_DIN_
  6
Continuous
 62
     7
100
AcDbPolyline
 90
        2
 70
     0
 43
0.5
 10
148.885123479532
 20
92.5221954518536
 10
149.458346784236
 20
91.94897214714962
  0
LWPOLYLINE
  5
1E4
330
1F
100
AcDbEntity
  8
Sichtbare_Kanten_TC_020513_DIN_
  6
Continuous
 62
     7
100
AcDbPolyline
 90
        2
 70
     0
 43
0.5
 10
143.458346784236
 20
91.94897214714962
 10
149.458346784236
 20
91.94897214714962
  0
LWPOLYLINE
  5
1E5
330
1F
100
AcDbEntity
  8
Sichtbare_Kanten_TC_020513_DIN_
  6
Continuous
 62
     7
100
AcDbPolyline
 90
        2
 70
     0
 43
0.5
 10
143.458346784236
 20
91.94897214714962
 10
35.4583467842358
 20
91.94897214714962
  0
LWPOLYLINE
  5
1E6
330
1F
100
AcDbEntity
  8
Sichtbare_Kanten_TC_020513_DIN_
  6
Continuous
 62
     7
100
AcDbPolyline
 90
        2
 70
     0
 43
0.5
 10
35.4583467842358
 20
93.44897214714962
 10
143.458346784236
 20
93.44897214714962
  0
LWPOLYLINE
  5
1E7
330
1F
100
AcDbEntity
  8
Sichtbare_Kanten_TC_020513_DIN_
  6
Continuous
 62
     7
100
AcDbPolyline
 90
        2
 70
     0
 43
0.5
 10
29.4583467842358
 20
91.94897214714962
 10
35.4583467842358
 20
91.94897214714962
  0
LWPOLYLINE
  5
1E8
330
1F
100
AcDbEntity
  8
Sichtbare_Kanten_TC_020513_DIN_
  6
Continuous
 62
     7
100
AcDbPolyline
 90
        2
 70
     0
 43
0.5
 10
35.4583467842358
 20
93.44897214714962
 10
29.4583467842358
 20
93.44897214714962
  0
LWPOLYLINE
  5
1E9
330
1F
100
AcDbEntity
  8
Sichtbare_Kanten_TC_020513_DIN_
  6
Continuous
 62
     7
100
AcDbPolyline
 90
        2
 70
     0
 43
0.5
 10
29.4583467842358
 20
93.44897214714962
 10
30.03157008893908
 20
92.87574884244663
  0
LWPOLYLINE
  5
1EA
330
1F
100
AcDbEntity
  8
Sichtbare_Kanten_TC_020513_DIN_
  6
Continuous
 62
     7
100
AcDbPolyline
 90
        2
 70
     0
 43
0.5
 10
30.03157008893908
 20
92.5221954518536
 10
29.4583467842358
 20
91.94897214714962
  0
LWPOLYLINE
  5
1EB
330
1F
100
AcDbEntity
  8
Sichtbare_Kanten_TC_020513_DIN_
  6
Continuous
 62
     7
100
AcDbPolyline
 90
        2
 70
     0
 43
0.5
 10
149.458346784236
 20
95.94897214714962
 10
143.458346784236
 20
95.94897214714962
  0
LWPOLYLINE
  5
1EC
330
1F
100
AcDbEntity
  8
Sichtbare_Kanten_TC_020513_DIN_
  6
Continuous
 62
     7
100
AcDbPolyline
 90
        2
 70
     0
 43
0.5
 10
149.458346784236
 20
95.94897214714962
 10
148.885123479532
 20
95.37574884244663
  0
LWPOLYLINE
  5
1ED
330
1F
100
AcDbEntity
  8
Sichtbare_Kanten_TC_020513_DIN_
  6
Continuous
 62
     7
100
AcDbPolyline
 90
        2
 70
     0
 43
0.5
 10
148.885123479532
 20
95.0221954518536
 10
149.458346784236
 20
94.44897214714962
  0
LWPOLYLINE
  5
1EE
330
1F
100
AcDbEntity
  8
Sichtbare_Kanten_TC_020513_DIN_
  6
Continuous
 62
     7
100
AcDbPolyline
 90
        2
 70
     0
 43
0.5
 10
143.458346784236
 20
94.44897214714962
 10
149.458346784236
 20
94.44897214714962
  0
LWPOLYLINE
  5
1EF
330
1F
100
AcDbEntity
  8
Sichtbare_Kanten_TC_020513_DIN_
  6
Continuous
 62
     7
100
AcDbPolyline
 90
        2
 70
     0
 43
0.5
 10
143.458346784236
 20
94.44897214714962
 10
35.4583467842358
 20
94.44897214714962
  0
LWPOLYLINE
  5
1F0
330
1F
100
AcDbEntity
  8
Sichtbare_Kanten_TC_020513_DIN_
  6
Continuous
 62
     7
100
AcDbPolyline
 90
        2
 70
     0
 43
0.5
 10
35.4583467842358
 20
95.94897214714962
 10
143.458346784236
 20
95.94897214714962
  0
LWPOLYLINE
  5
1F1
330
1F
100
AcDbEntity
  8
Sichtbare_Kanten_TC_020513_DIN_
  6
Continuous
 62
     7
100
AcDbPolyline
 90
        2
 70
     0
 43
0.5
 10
29.4583467842358
 20
94.44897214714962
 10
35.4583467842358
 20
94.44897214714962
  0
LWPOLYLINE
  5
1F2
330
1F
100
AcDbEntity
  8
Sichtbare_Kanten_TC_020513_DIN_
  6
Continuous
 62
     7
100
AcDbPolyline
 90
        2
 70
     0
 43
0.5
 10
35.4583467842358
 20
95.94897214714962
 10
29.4583467842358
 20
95.94897214714962
  0
LWPOLYLINE
  5
1F3
330
1F
100
AcDbEntity
  8
Sichtbare_Kanten_TC_020513_DIN_
  6
Continuous
 62
     7
100
AcDbPolyline
 90
        2
 70
     0
 43
0.5
 10
29.4583467842358
 20
95.94897214714962
 10
30.03157008893908
 20
95.37574884244663
  0
LWPOLYLINE
  5
1F4
330
1F
100
AcDbEntity
  8
Sichtbare_Kanten_TC_020513_DIN_
  6
Continuous
 62
     7
100
AcDbPolyline
 90
        2
 70
     0
 43
0.5
 10
30.03157008893908
 20
95.0221954518536
 10
29.4583467842358
 20
94.44897214714962
  0
LWPOLYLINE
  5
1F5
330
1F
100
AcDbEntity
  8
Sichtbare_Kanten_TC_020513_DIN_
  6
Continuous
 62
     7
100
AcDbPolyline
 90
        2
 70
     0
 43
0.5
 10
149.458346784236
 20
98.44897214714962
 10
143.458346784236
 20
98.44897214714962
  0
LWPOLYLINE
  5
1F6
330
1F
100
AcDbEntity
  8
Sichtbare_Kanten_TC_020513_DIN_
  6
Continuous
 62
     7
100
AcDbPolyline
 90
        2
 70
     0
 43
0.5
 10
149.458346784236
 20
98.44897214714962
 10
148.885123479532
 20
97.87574884244663
  0
LWPOLYLINE
  5
1F7
330
1F
100
AcDbEntity
  8
Sichtbare_Kanten_TC_020513_DIN_
  6
Continuous
 62
     7
100
AcDbPolyline
 90
        2
 70
     0
 43
0.5
 10
148.885123479532
 20
97.5221954518536
 10
149.458346784236
 20
96.94897214714962
  0
LWPOLYLINE
  5
1F8
330
1F
100
AcDbEntity
  8
Sichtbare_Kanten_TC_020513_DIN_
  6
Continuous
 62
     7
100
AcDbPolyline
 90
        2
 70
     0
 43
0.5
 10
143.458346784236
 20
96.94897214714962
 10
149.458346784236
 20
96.94897214714962
  0
LWPOLYLINE
  5
1F9
330
1F
100
AcDbEntity
  8
Sichtbare_Kanten_TC_020513_DIN_
  6
Continuous
 62
     7
100
AcDbPolyline
 90
        2
 70
     0
 43
0.5
 10
143.458346784236
 20
96.94897214714962
 10
35.4583467842358
 20
96.94897214714962
  0
LWPOLYLINE
  5
1FA
330
1F
100
AcDbEntity
  8
Sichtbare_Kanten_TC_020513_DIN_
  6
Continuous
 62
     7
100
AcDbPolyline
 90
        2
 70
     0
 43
0.5
 10
29.4583467842358
 20
96.94897214714962
 10
35.4583467842358
 20
96.94897214714962
  0
LWPOLYLINE
  5
1FB
330
1F
100
AcDbEntity
  8
Sichtbare_Kanten_TC_020513_DIN_
  6
Continuous
 62
     7
100
AcDbPolyline
 90
        2
 70
     0
 43
0.5
 10
35.4583467842358
 20
98.44897214714962
 10
29.4583467842358
 20
98.44897214714962
  0
LWPOLYLINE
  5
1FC
330
1F
100
AcDbEntity
  8
Sichtbare_Kanten_TC_020513_DIN_
  6
Continuous
 62
     7
100
AcDbPolyline
 90
        2
 70
     0
 43
0.5
 10
29.4583467842358
 20
98.44897214714962
 10
30.03157008893908
 20
97.87574884244663
  0
LWPOLYLINE
  5
1FD
330
1F
100
AcDbEntity
  8
Sichtbare_Kanten_TC_020513_DIN_
  6
Continuous
 62
     7
100
AcDbPolyline
 90
        2
 70
     0
 43
0.5
 10
30.03157008893908
 20
97.5221954518536
 10
29.4583467842358
 20
96.94897214714962
  0
LWPOLYLINE
  5
1FE
330
1F
100
AcDbEntity
  8
Sichtbare_Kanten_TC_020513_DIN_
  6
Continuous
 62
     7
100
AcDbPolyline
 90
        2
 70
     0
 43
0.5
 10
29.5169254279985
 20
90.89039350338763
 10
30.03157008893908
 20
90.37574884244663
  0
LWPOLYLINE
  5
1FF
330
1F
100
AcDbEntity
  8
Sichtbare_Kanten_TC_020513_DIN_
  6
Continuous
 62
     7
100
AcDbPolyline
 90
        2
 70
     0
 43
0.5
 10
149.399768140473
 20
90.89039350338763
 10
148.885123479532
 20
90.37574884244663
  0
LWPOLYLINE
  5
200
330
1F
100
AcDbEntity
  8
Sichtbare_Kanten_TC_020513_DIN_
  6
Continuous
 62
     7
100
AcDbPolyline
 90
        2
 70
     0
 43
0.5
 10
148.885123479532
 20
90.0221954518536
 10
149.399768140473
 20
89.5075507909126
  0
LWPOLYLINE
  5
201
330
1F
100
AcDbEntity
  8
Sichtbare_Kanten_TC_020513_DIN_
  6
Continuous
 62
     7
100
AcDbPolyline
 90
        2
 70
     0
 43
0.5
 10
149.399768140473
 20
88.39039350338763
 10
148.885123479532
 20
87.87574884244663
  0
LWPOLYLINE
  5
202
330
1F
100
AcDbEntity
  8
Sichtbare_Kanten_TC_020513_DIN_
  6
Continuous
 62
     7
100
AcDbPolyline
 90
        2
 70
     0
 43
0.5
 10
148.885123479532
 20
87.5221954518536
 10
149.399768140473
 20
87.0075507909126
  0
LWPOLYLINE
  5
203
330
1F
100
AcDbEntity
  8
Sichtbare_Kanten_TC_020513_DIN_
  6
Continuous
 62
     7
100
AcDbPolyline
 90
        2
 70
     0
 43
0.5
 10
29.4583467842358
 20
96.94897214714962
 10
29.4583467842358
 20
98.44897214714962
  0
LWPOLYLINE
  5
204
330
1F
100
AcDbEntity
  8
Sichtbare_Kanten_TC_020513_DIN_
  6
Continuous
 62
     7
100
AcDbPolyline
 90
        2
 70
     0
 43
0.5
 10
29.4583467842358
 20
94.44897214714962
 10
29.4583467842358
 20
95.94897214714962
  0
LWPOLYLINE
  5
205
330
1F
100
AcDbEntity
  8
Sichtbare_Kanten_TC_020513_DIN_
  6
Continuous
 62
     7
100
AcDbPolyline
 90
        2
 70
     0
 43
0.5
 10
29.4583467842358
 20
91.94897214714962
 10
29.4583467842358
 20
93.44897214714962
  0
LWPOLYLINE
  5
206
330
1F
100
AcDbEntity
  8
Sichtbare_Kanten_TC_020513_DIN_
  6
Continuous
 62
     7
100
AcDbPolyline
 90
        2
 70
     0
 43
0.5
 10
29.4583467842358
 20
91.0318148596246
 10
29.4583467842358
 20
90.46612943467562
  0
LWPOLYLINE
  5
207
330
1F
100
AcDbEntity
  8
Sichtbare_Kanten_TC_020513_DIN_
  6
Continuous
 62
     7
100
AcDbPolyline
 90
        2
 70
     0
 43
0.5
 10
29.4583467842358
 20
90.46612943467562
 10
29.4583467842358
 20
89.93181485962461
  0
LWPOLYLINE
  5
208
330
1F
100
AcDbEntity
  8
Sichtbare_Kanten_TC_020513_DIN_
  6
Continuous
 62
     7
100
AcDbPolyline
 90
        2
 70
     0
 43
0.5
 10
29.4583467842358
 20
89.93181485962461
 10
29.4583467842358
 20
89.36612943467563
  0
LWPOLYLINE
  5
209
330
1F
100
AcDbEntity
  8
Sichtbare_Kanten_TC_020513_DIN_
  6
Continuous
 62
     7
100
AcDbPolyline
 90
        2
 70
     0
 43
0.5
 10
29.4583467842358
 20
87.96612943467562
 10
29.4583467842358
 20
87.43181485962461
  0
LWPOLYLINE
  5
20A
330
1F
100
AcDbEntity
  8
Sichtbare_Kanten_TC_020513_DIN_
  6
Continuous
 62
     7
100
AcDbPolyline
 90
        2
 70
     0
 43
0.5
 10
29.4583467842358
 20
88.5318148596246
 10
29.4583467842358
 20
87.96612943467562
  0
LWPOLYLINE
  5
20B
330
1F
100
AcDbEntity
  8
Sichtbare_Kanten_TC_020513_DIN_
  6
Continuous
 62
     7
100
AcDbPolyline
 90
        2
 70
     0
 43
0.5
 10
29.4583467842358
 20
87.43181485962461
 10
29.4583467842358
 20
86.86612943467563
  0
LWPOLYLINE
  5
20C
330
1F
100
AcDbEntity
  8
Sichtbare_Kanten_TC_020513_DIN_
  6
Continuous
 62
     7
100
AcDbPolyline
 90
        2
 70
     0
 43
0.5
 10
30.03157008893908
 20
85.02219545185332
 10
29.5169254279985
 20
84.5075507909126
  0
LWPOLYLINE
  5
20D
330
1F
100
AcDbEntity
  8
Sichtbare_Kanten_TC_020513_DIN_
  6
Continuous
 62
     7
100
AcDbPolyline
 90
        2
 70
     0
 43
0.5
 10
29.51692542799839
 20
85.8903935033872
 10
30.03157008893908
 20
85.37574884244651
  0
LWPOLYLINE
  5
20E
330
1F
100
AcDbEntity
  8
Sichtbare_Kanten_TC_020513_DIN_
  6
Continuous
 62
     7
100
AcDbPolyline
 90
        2
 70
     0
 43
0.5
 10
149.399768140473
 20
85.8903935033872
 10
148.885123479532
 20
85.37574884244651
  0
LWPOLYLINE
  5
20F
330
1F
100
AcDbEntity
  8
Sichtbare_Kanten_TC_020513_DIN_
  6
Continuous
 62
     7
100
AcDbPolyline
 90
        2
 70
     0
 43
0.5
 10
149.458346784236
 20
86.86612943467563
 10
149.458346784236
 20
87.43181485962461
  0
LWPOLYLINE
  5
210
330
1F
100
AcDbEntity
  8
Sichtbare_Kanten_TC_020513_DIN_
  6
Continuous
 62
     7
100
AcDbPolyline
 90
        2
 70
     0
 43
0.5
 10
149.458346784236
 20
87.43181485962461
 10
149.458346784236
 20
87.96612943467562
  0
LWPOLYLINE
  5
211
330
1F
100
AcDbEntity
  8
Sichtbare_Kanten_TC_020513_DIN_
  6
Continuous
 62
     7
100
AcDbPolyline
 90
        2
 70
     0
 43
0.5
 10
149.458346784236
 20
87.96612943467562
 10
149.458346784236
 20
88.5318148596246
  0
LWPOLYLINE
  5
212
330
1F
100
AcDbEntity
  8
Sichtbare_Kanten_TC_020513_DIN_
  6
Continuous
 62
     7
100
AcDbPolyline
 90
        2
 70
     0
 43
0.5
 10
149.458346784236
 20
89.36612943467563
 10
149.458346784236
 20
89.93181485962461
  0
LWPOLYLINE
  5
213
330
1F
100
AcDbEntity
  8
Sichtbare_Kanten_TC_020513_DIN_
  6
Continuous
 62
     7
100
AcDbPolyline
 90
        2
 70
     0
 43
0.5
 10
149.458346784236
 20
89.93181485962461
 10
149.458346784236
 20
90.46612943467562
  0
LWPOLYLINE
  5
214
330
1F
100
AcDbEntity
  8
Sichtbare_Kanten_TC_020513_DIN_
  6
Continuous
 62
     7
100
AcDbPolyline
 90
        2
 70
     0
 43
0.5
 10
149.458346784236
 20
90.46612943467562
 10
149.458346784236
 20
91.0318148596246
  0
LWPOLYLINE
  5
215
330
1F
100
AcDbEntity
  8
Sichtbare_Kanten_TC_020513_DIN_
  6
Continuous
 62
     7
100
AcDbPolyline
 90
        2
 70
     0
 43
0.5
 10
149.458346784236
 20
93.44897214714962
 10
149.458346784236
 20
91.94897214714962
  0
LWPOLYLINE
  5
216
330
1F
100
AcDbEntity
  8
Sichtbare_Kanten_TC_020513_DIN_
  6
Continuous
 62
     7
100
AcDbPolyline
 90
        2
 70
     0
 43
0.5
 10
149.458346784236
 20
95.94897214714962
 10
149.458346784236
 20
94.44897214714962
  0
LWPOLYLINE
  5
217
330
1F
100
AcDbEntity
  8
Sichtbare_Kanten_TC_020513_DIN_
  6
Continuous
 62
     7
100
AcDbPolyline
 90
        2
 70
     0
 43
0.5
 10
149.458346784236
 20
98.44897214714962
 10
149.458346784236
 20
96.94897214714962
  0
LWPOLYLINE
  5
218
330
1F
100
AcDbEntity
  8
Sichtbare_Kanten_TC_020513_DIN_
  6
Continuous
 62
     7
100
AcDbPolyline
 90
        2
 70
     0
 43
0.5
 10
149.458346784236
 20
84.93181485962452
 10
149.458346784236
 20
85.46612943467531
  0
LWPOLYLINE
  5
219
330
1F
100
AcDbEntity
  8
Sichtbare_Kanten_TC_020513_DIN_
  6
Continuous
 62
     7
100
AcDbPolyline
 90
        2
 70
     0
 43
0.5
 10
29.4583467842358
 20
85.46612943467531
 10
29.4583467842358
 20
84.93181485962452
  0
LWPOLYLINE
  5
21A
330
1F
100
AcDbEntity
  8
Sichtbare_Kanten_TC_020513_DIN_
  6
Continuous
 62
     7
100
AcDbPolyline
 90
        2
 70
     0
 43
0.5
 10
29.4583467842358
 20
84.93181485962452
 10
29.4583467842358
 20
84.36612943467532
  0
LWPOLYLINE
  5
21B
330
1F
100
AcDbEntity
  8
Sichtbare_Kanten_TC_020513_DIN_
  6
Continuous
 62
     7
100
AcDbPolyline
 90
        2
 70
     0
 43
0.5
 10
29.4583467842358
 20
86.03181485962452
 10
29.4583467842358
 20
85.46612943467531
  0
LWPOLYLINE
  5
21C
330
1F
100
AcDbEntity
  8
Sichtbare_Kanten_TC_020513_DIN_
  6
Continuous
 62
     7
100
AcDbPolyline
 90
        2
 70
     0
 43
0.5
 10
149.458346784236
 20
84.36612943467532
 10
149.458346784236
 20
84.93181485962452
  0
LWPOLYLINE
  5
21D
330
1F
100
AcDbEntity
  8
Sichtbare_Kanten_TC_020513_DIN_
  6
Continuous
 62
     7
100
AcDbPolyline
 90
        2
 70
     0
 43
0.5
 10
149.458346784236
 20
85.46612943467531
 10
149.458346784236
 20
86.03181485962452
  0
LWPOLYLINE
  5
21E
330
1F
100
AcDbEntity
  8
Sichtbare_Kanten_TC_020513_DIN_
  6
Continuous
 62
     7
100
AcDbPolyline
 90
        2
 70
     0
 43
0.5
 10
35.4583467842358
 20
98.44897214714962
 10
143.458346784236
 20
98.44897214714962
  0
LWPOLYLINE
  5
21F
330
1F
100
AcDbEntity
  8
Sichtbare_Kanten_TC_020513_DIN_
  6
Continuous
 62
     7
100
AcDbPolyline
 90
        2
 70
     0
 43
0.5
 10
142.572315699733
 20
108.6989721471496
 10
36.34437786873832
 20
108.6989721471496
  0
LWPOLYLINE
  5
220
330
1F
100
AcDbEntity
  8
Sichtbare_Kanten_TC_020513_DIN_
  6
Continuous
 62
     7
100
AcDbPolyline
 90
        2
 70
     0
 43
0.5
 10
145.763777792792
 20
109.6989721471496
 10
33.1529157756799
 20
109.6989721471496
  0
LWPOLYLINE
  5
221
330
1F
100
AcDbEntity
  8
Sichtbare_Kanten_TC_020513_DIN_
  6
Continuous
 62
     7
100
AcDbPolyline
 90
        2
 70
     0
 43
0.5
 10
33.1529157756799
 20
109.6989721471496
 10
38.70721566799659
 20
141.1989721471496
  0
LWPOLYLINE
  5
222
330
1F
100
AcDbEntity
  8
Sichtbare_Kanten_TC_020513_DIN_
  6
Continuous
 62
     7
100
AcDbPolyline
 90
        2
 70
     0
 43
0.5
 10
140.209477900475
 20
141.1989721471496
 10
98.73196527973153
 20
141.1989721471496
  0
LWPOLYLINE
  5
223
330
1F
100
AcDbEntity
  8
Sichtbare_Kanten_TC_020513_DIN_
  6
Continuous
 62
     7
100
AcDbPolyline
 90
        2
 70
     0
 43
0.5
 10
80.18472828874002
 20
141.1989721471496
 10
38.70721566799659
 20
141.1989721471496
  0
LWPOLYLINE
  5
224
330
1F
100
AcDbEntity
  8
Sichtbare_Kanten_TC_020513_DIN_
  6
Continuous
 62
     7
100
AcDbPolyline
 90
        2
 70
     0
 43
0.5
 10
96.09159636494667
 20
142.1989721471506
 10
136.665361845999
 20
142.1989721471496
  0
LWPOLYLINE
  5
225
330
1F
100
AcDbEntity
  8
Sichtbare_Kanten_TC_020513_DIN_
  6
Continuous
 62
     7
100
AcDbPolyline
 90
        2
 70
     0
 43
0.5
 10
42.25133172247189
 20
142.1989721471496
 10
82.82509720352493
 20
142.1989721471496
  0
LWPOLYLINE
  5
226
330
1F
100
AcDbEntity
  8
Sichtbare_Kanten_TC_020513_DIN_
  6
Continuous
 62
     7
100
AcDbPolyline
 90
        2
 70
     0
 43
0.5
 10
140.209477900475
 20
141.1989721471496
 10
145.763777792792
 20
109.6989721471496
  0
LWPOLYLINE
  5
227
330
1F
100
AcDbEntity
  8
Sichtbare_Kanten_TC_020513_DIN_
  6
Continuous
 62
     7
100
AcDbPolyline
 90
        2
 70
     0
 43
0.5
 10
35.4583467842358
 20
103.6740401659946
 10
29.4583467842358
 20
104.1989721471496
  0
LWPOLYLINE
  5
228
330
1F
100
AcDbEntity
  8
Sichtbare_Kanten_TC_020513_DIN_
  6
Continuous
 62
     7
100
AcDbPolyline
 90
        2
 70
     0
 43
0.5
 10
36.86777306025772
 20
146.2199166801506
 10
29.4583467842358
 20
104.1989721471496
  0
LWPOLYLINE
  5
229
330
1F
100
AcDbEntity
  8
Sichtbare_Kanten_TC_020513_DIN_
  6
Continuous
 62
     7
100
AcDbPolyline
 90
        2
 70
     0
 43
0.5
 10
149.458346784236
 20
104.1989721471496
 10
143.458346784236
 20
103.6740401659946
  0
LWPOLYLINE
  5
22A
330
1F
100
AcDbEntity
  8
Sichtbare_Kanten_TC_020513_DIN_
  6
Continuous
 62
     7
100
AcDbPolyline
 90
        2
 70
     0
 43
0.5
 10
149.458346784236
 20
104.1989721471496
 10
142.048920508214
 20
146.2199166801506
  0
LWPOLYLINE
  5
22B
330
1F
100
AcDbEntity
  8
Sichtbare_Kanten_TC_020513_DIN_
  6
Continuous
 62
     7
100
AcDbPolyline
 90
        2
 70
     0
 43
0.5
 10
29.4583467842358
 20
98.44897214714962
 10
29.4583467842358
 20
104.1989721471496
  0
LWPOLYLINE
  5
22C
330
1F
100
AcDbEntity
  8
Sichtbare_Kanten_TC_020513_DIN_
  6
Continuous
 62
     7
100
AcDbPolyline
 90
        2
 70
     0
 43
0.5
 10
29.4583467842358
 20
95.94897214714962
 10
29.4583467842358
 20
96.94897214714962
  0
LWPOLYLINE
  5
22D
330
1F
100
AcDbEntity
  8
Sichtbare_Kanten_TC_020513_DIN_
  6
Continuous
 62
     7
100
AcDbPolyline
 90
        2
 70
     0
 43
0.5
 10
29.4583467842358
 20
93.44897214714962
 10
29.4583467842358
 20
94.44897214714962
  0
LWPOLYLINE
  5
22E
330
1F
100
AcDbEntity
  8
Sichtbare_Kanten_TC_020513_DIN_
  6
Continuous
 62
     7
100
AcDbPolyline
 90
        2
 70
     0
 43
0.5
 10
29.4583467842358
 20
91.0318148596246
 10
29.4583467842358
 20
91.94897214714962
  0
LWPOLYLINE
  5
22F
330
1F
100
AcDbEntity
  8
Sichtbare_Kanten_TC_020513_DIN_
  6
Continuous
 62
     7
100
AcDbPolyline
 90
        2
 70
     0
 43
0.5
 10
29.4583467842358
 20
88.5318148596246
 10
29.4583467842358
 20
89.36612943467563
  0
LWPOLYLINE
  5
230
330
1F
100
AcDbEntity
  8
Sichtbare_Kanten_TC_020513_DIN_
  6
Continuous
 62
     7
100
AcDbPolyline
 90
        2
 70
     0
 43
0.5
 10
29.4583467842358
 20
86.03181485962452
 10
29.4583467842358
 20
86.86612943467563
  0
LWPOLYLINE
  5
231
330
1F
100
AcDbEntity
  8
Sichtbare_Kanten_TC_020513_DIN_
  6
Continuous
 62
     7
100
AcDbPolyline
 90
        2
 70
     0
 43
0.5
 10
29.4583467842358
 20
72.1989721471499
 10
29.4583467842358
 20
84.36612943467532
  0
LWPOLYLINE
  5
232
330
1F
100
AcDbEntity
  8
Sichtbare_Kanten_TC_020513_DIN_
  6
Continuous
 62
     7
100
AcDbPolyline
 90
        2
 70
     0
 43
0.5
 10
149.458346784236
 20
72.1989721471499
 10
149.458346784236
 20
84.36612943467532
  0
LWPOLYLINE
  5
233
330
1F
100
AcDbEntity
  8
Sichtbare_Kanten_TC_020513_DIN_
  6
Continuous
 62
     7
100
AcDbPolyline
 90
        2
 70
     0
 43
0.5
 10
149.458346784236
 20
86.03181485962452
 10
149.458346784236
 20
86.86612943467563
  0
LWPOLYLINE
  5
234
330
1F
100
AcDbEntity
  8
Sichtbare_Kanten_TC_020513_DIN_
  6
Continuous
 62
     7
100
AcDbPolyline
 90
        2
 70
     0
 43
0.5
 10
149.458346784236
 20
88.5318148596246
 10
149.458346784236
 20
89.36612943467563
  0
LWPOLYLINE
  5
235
330
1F
100
AcDbEntity
  8
Sichtbare_Kanten_TC_020513_DIN_
  6
Continuous
 62
     7
100
AcDbPolyline
 90
        2
 70
     0
 43
0.5
 10
149.458346784236
 20
91.0318148596246
 10
149.458346784236
 20
91.94897214714962
  0
LWPOLYLINE
  5
236
330
1F
100
AcDbEntity
  8
Sichtbare_Kanten_TC_020513_DIN_
  6
Continuous
 62
     7
100
AcDbPolyline
 90
        2
 70
     0
 43
0.5
 10
149.458346784236
 20
93.44897214714962
 10
149.458346784236
 20
94.44897214714962
  0
LWPOLYLINE
  5
237
330
1F
100
AcDbEntity
  8
Sichtbare_Kanten_TC_020513_DIN_
  6
Continuous
 62
     7
100
AcDbPolyline
 90
        2
 70
     0
 43
0.5
 10
149.458346784236
 20
95.94897214714962
 10
149.458346784236
 20
96.94897214714962
  0
LWPOLYLINE
  5
238
330
1F
100
AcDbEntity
  8
Sichtbare_Kanten_TC_020513_DIN_
  6
Continuous
 62
     7
100
AcDbPolyline
 90
        2
 70
     0
 43
0.5
 10
149.458346784236
 20
98.44897214714962
 10
149.458346784236
 20
104.1989721471496
  0
LWPOLYLINE
  5
239
330
1F
100
AcDbEntity
  8
Sichtbare_Kanten_TC_020513_DIN_
  6
Continuous
 62
     7
100
AcDbPolyline
 90
        2
 70
     0
 43
0.5
 10
136.04821741352
 20
148.6989721471496
 10
102.264595259101
 20
148.6989721471496
  0
LWPOLYLINE
  5
23A
330
1F
100
AcDbEntity
  8
Sichtbare_Kanten_TC_020513_DIN_
  6
Continuous
 62
     7
100
AcDbPolyline
 90
        2
 70
     0
 43
0.5
 10
76.65209830936999
 20
148.6989721471496
 10
42.86847615495151
 20
148.6989721471496
  0
LWPOLYLINE
  5
23B
330
1F
100
AcDbEntity
  8
Sichtbare_Kanten_TC_020513_DIN_
  6
Continuous
 62
     7
100
AcDbPolyline
 90
        2
 70
     0
 43
0.5
 10
41.5833467842358
 20
148.6989721471496
 10
42.86847615495151
 20
148.6989721471496
  0
LWPOLYLINE
  5
23C
330
1F
100
AcDbEntity
  8
Sichtbare_Kanten_TC_020513_DIN_
  6
Continuous
 62
     7
100
AcDbPolyline
 90
        2
 70
     0
 43
0.5
 10
39.82219631929428
 20
148.6989721471496
 10
41.5833467842358
 20
148.6989721471496
  0
LWPOLYLINE
  5
23D
330
1F
100
AcDbEntity
  8
Sichtbare_Kanten_TC_020513_DIN_
  6
Continuous
 62
     7
100
AcDbPolyline
 90
        2
 70
     0
 43
0.5
 10
96.09159636494661
 20
145.6989721471496
 10
96.09159636494667
 20
142.1989721471506
  0
LWPOLYLINE
  5
23E
330
1F
100
AcDbEntity
  8
Sichtbare_Kanten_TC_020513_DIN_
  6
Continuous
 62
     7
100
AcDbPolyline
 90
        2
 70
     0
 43
0.5
 10
82.82509720352493
 20
142.1989721471496
 10
82.82509720352493
 20
145.6989721471496
  0
LWPOLYLINE
  5
23F
330
1F
100
AcDbEntity
  8
Sichtbare_Kanten_TC_020513_DIN_
  6
Continuous
 62
     7
100
AcDbPolyline
 90
        2
 70
     0
 43
0.5
 10
98.73196527973153
 20
141.1989721471496
 10
80.18472828874002
 20
141.1989721471496
  0
LWPOLYLINE
  5
240
330
1F
100
AcDbEntity
  8
Sichtbare_Kanten_TC_020513_DIN_
  6
Continuous
 62
     7
100
AcDbPolyline
 90
        2
 70
     0
 43
0.5
 10
102.264595259101
 20
148.6989721471496
 10
76.65209830936999
 20
148.6989721471496
  0
LWPOLYLINE
  5
241
330
1F
100
AcDbEntity
  8
Sichtbare_Kanten_TC_020513_DIN_
  6
Continuous
 62
     7
100
AcDbPolyline
 90
        2
 70
     0
 43
0.5
 10
155.958346784236
 20
76.6989721471499
 10
155.458346784236
 20
76.6989721471499
  0
LWPOLYLINE
  5
242
330
1F
100
AcDbEntity
  8
Sichtbare_Kanten_TC_020513_DIN_
  6
Continuous
 62
     7
100
AcDbPolyline
 90
        2
 70
     0
 43
0.5
 10
155.958346784236
 20
71.6989721471499
 10
155.458346784236
 20
71.6989721471499
  0
LWPOLYLINE
  5
243
330
1F
100
AcDbEntity
  8
Sichtbare_Kanten_TC_020513_DIN_
  6
Continuous
 62
     7
100
AcDbPolyline
 90
        2
 70
     0
 43
0.5
 10
157.208346784236
 20
78.6989721471499
 10
156.208346784236
 20
78.6989721471499
  0
LWPOLYLINE
  5
244
330
1F
100
AcDbEntity
  8
Sichtbare_Kanten_TC_020513_DIN_
  6
Continuous
 62
     7
100
AcDbPolyline
 90
        2
 70
     0
 43
0.5
 10
157.208346784236
 20
69.6989721471499
 10
156.208346784236
 20
69.6989721471499
  0
LWPOLYLINE
  5
245
330
1F
100
AcDbEntity
  8
Sichtbare_Kanten_TC_020513_DIN_
  6
Continuous
 62
     7
100
AcDbPolyline
 90
        2
 70
     0
 43
0.5
 10
150.458346784236
 20
76.6989721471499
 10
149.458346784236
 20
76.6989721471499
  0
LWPOLYLINE
  5
246
330
1F
100
AcDbEntity
  8
Sichtbare_Kanten_TC_020513_DIN_
  6
Continuous
 62
     7
100
AcDbPolyline
 90
        2
 70
     0
 43
0.5
 10
150.458346784236
 20
71.6989721471499
 10
149.508346784236
 20
71.6989721471499
  0
LWPOLYLINE
  5
247
330
1F
100
AcDbEntity
  8
Sichtbare_Kanten_TC_020513_DIN_
  6
Continuous
 62
     7
100
AcDbPolyline
 90
        2
 70
     0
 43
0.5
 10
155.958346784236
 20
78.4489721471499
 10
155.958346784236
 20
69.9489721471499
  0
LWPOLYLINE
  5
248
330
1F
100
AcDbEntity
  8
Sichtbare_Kanten_TC_020513_DIN_
  6
Continuous
 62
     7
100
AcDbPolyline
 90
        2
 70
     0
 43
0.5
 10
157.458346784236
 20
78.4489721471499
 10
157.458346784236
 20
69.9489721471499
  0
LWPOLYLINE
  5
249
330
1F
100
AcDbEntity
  8
Sichtbare_Kanten_TC_020513_DIN_
  6
Continuous
 62
     7
100
AcDbPolyline
 90
        2
 70
     0
 43
0.5
 10
150.258346784236
 20
67.64897214714992
 10
150.258346784236
 20
69.74897214714991
  0
LWPOLYLINE
  5
24A
330
1F
100
AcDbEntity
  8
Sichtbare_Kanten_TC_020513_DIN_
  6
Continuous
 62
     7
100
AcDbPolyline
 90
        2
 70
     0
 43
0.5
 10
155.658346784236
 20
67.64897214714992
 10
155.658346784236
 20
69.74897214714991
  0
LWPOLYLINE
  5
24B
330
1F
100
AcDbEntity
  8
Sichtbare_Kanten_TC_020513_DIN_
  6
Continuous
 62
     7
100
AcDbPolyline
 90
        2
 70
     0
 43
0.5
 10
153.958346784236
 20
46.19897214714992
 10
153.958346784236
 20
45.94897214714992
  0
LWPOLYLINE
  5
24C
330
1F
100
AcDbEntity
  8
Sichtbare_Kanten_TC_020513_DIN_
  6
Continuous
 62
     7
100
AcDbPolyline
 90
        2
 70
     0
 43
0.5
 10
155.458346784236
 20
77.9489721471499
 10
155.458346784236
 20
60.19897214714991
  0
LWPOLYLINE
  5
24D
330
1F
100
AcDbEntity
  8
Sichtbare_Kanten_TC_020513_DIN_
  6
Continuous
 62
     7
100
AcDbPolyline
 90
        2
 70
     0
 43
0.5
 10
155.458346784236
 20
46.19897214714992
 10
155.458346784236
 20
45.94897214714992
  0
LWPOLYLINE
  5
24E
330
1F
100
AcDbEntity
  8
Sichtbare_Kanten_TC_020513_DIN_
  6
Continuous
 62
     7
100
AcDbPolyline
 90
        2
 70
     0
 43
0.5
 10
153.958346784236
 20
45.94897214714992
 10
155.458346784236
 20
45.94897214714992
  0
LWPOLYLINE
  5
24F
330
1F
100
AcDbEntity
  8
Sichtbare_Kanten_TC_020513_DIN_
  6
Continuous
 62
     7
100
AcDbPolyline
 90
        2
 70
     0
 43
0.5
 10
153.958346784236
 20
77.9489721471499
 10
155.458346784236
 20
77.9489721471499
  0
LWPOLYLINE
  5
250
330
1F
100
AcDbEntity
  8
Sichtbare_Kanten_TC_020513_DIN_
  6
Continuous
 62
     7
100
AcDbPolyline
 90
        2
 70
     0
 43
0.5
 10
153.958346784236
 20
77.8684352895103
 10
153.958346784236
 20
74.88528002989761
  0
LWPOLYLINE
  5
251
330
1F
100
AcDbEntity
  8
Sichtbare_Kanten_TC_020513_DIN_
  6
Continuous
 62
     7
100
AcDbPolyline
 90
        2
 70
     0
 43
0.5
 10
150.458346784236
 20
77.9489721471499
 10
150.458346784236
 20
60.19897214714991
  0
LWPOLYLINE
  5
252
330
1F
100
AcDbEntity
  8
Sichtbare_Kanten_TC_020513_DIN_
  6
Continuous
 62
     7
100
AcDbPolyline
 90
        2
 70
     0
 43
0.5
 10
150.458346784236
 20
46.19897214714992
 10
150.458346784236
 20
45.94897214714992
  0
LWPOLYLINE
  5
253
330
1F
100
AcDbEntity
  8
Sichtbare_Kanten_TC_020513_DIN_
  6
Continuous
 62
     7
100
AcDbPolyline
 90
        2
 70
     0
 43
0.5
 10
150.458346784236
 20
45.94897214714992
 10
151.958346784236
 20
45.94897214714992
  0
LWPOLYLINE
  5
254
330
1F
100
AcDbEntity
  8
Sichtbare_Kanten_TC_020513_DIN_
  6
Continuous
 62
     7
100
AcDbPolyline
 90
        2
 70
     0
 43
0.5
 10
150.458346784236
 20
77.9489721471499
 10
151.958346784236
 20
77.9489721471499
  0
LWPOLYLINE
  5
255
330
1F
100
AcDbEntity
  8
Sichtbare_Kanten_TC_020513_DIN_
  6
Continuous
 62
     7
100
AcDbPolyline
 90
        2
 70
     0
 43
0.5
 10
151.958346784236
 20
46.19897214714992
 10
151.958346784236
 20
45.94897214714992
  0
LWPOLYLINE
  5
256
330
1F
100
AcDbEntity
  8
Sichtbare_Kanten_TC_020513_DIN_
  6
Continuous
 62
     7
100
AcDbPolyline
 90
        2
 70
     0
 43
0.5
 10
151.958346784236
 20
77.8684352895103
 10
151.958346784236
 20
74.88528002989761
  0
LWPOLYLINE
  5
257
330
1F
100
AcDbEntity
  8
Sichtbare_Kanten_TC_020513_DIN_
  6
Continuous
 62
     7
100
AcDbPolyline
 90
        2
 70
     0
 43
0.5
 10
35.4583467842358
 20
66.6989721471499
 10
29.40834678423579
 20
66.6989721471499
  0
LWPOLYLINE
  5
258
330
1F
100
AcDbEntity
  8
Sichtbare_Kanten_TC_020513_DIN_
  6
Continuous
 62
     7
100
AcDbPolyline
 90
        2
 70
     0
 43
0.5
 10
35.4583467842358
 20
66.6989721471499
 10
143.458346784236
 20
66.6989721471499
  0
LWPOLYLINE
  5
259
330
1F
100
AcDbEntity
  8
Sichtbare_Kanten_TC_020513_DIN_
  6
Continuous
 62
     7
100
AcDbPolyline
 90
        2
 70
     0
 43
0.5
 10
149.508346784236
 20
66.6989721471499
 10
143.458346784236
 20
66.6989721471499
  0
LWPOLYLINE
  5
25A
330
1F
100
AcDbEntity
  8
Sichtbare_Kanten_TC_020513_DIN_
  6
Continuous
 62
     7
100
AcDbPolyline
 90
        2
 70
     0
 43
0.5
 10
143.458346784236
 20
72.1989721471499
 10
149.508346784236
 20
72.1989721471499
  0
LWPOLYLINE
  5
25B
330
1F
100
AcDbEntity
  8
Sichtbare_Kanten_TC_020513_DIN_
  6
Continuous
 62
     7
100
AcDbPolyline
 90
        2
 70
     0
 43
0.5
 10
143.458346784236
 20
72.1989721471499
 10
35.4583467842358
 20
72.1989721471499
  0
LWPOLYLINE
  5
25C
330
1F
100
AcDbEntity
  8
Sichtbare_Kanten_TC_020513_DIN_
  6
Continuous
 62
     7
100
AcDbPolyline
 90
        2
 70
     0
 43
0.5
 10
29.40834678423579
 20
72.1989721471499
 10
35.4583467842358
 20
72.1989721471499
  0
LWPOLYLINE
  5
25D
330
1F
100
AcDbEntity
  8
Sichtbare_Kanten_TC_020513_DIN_
  6
Continuous
 62
     7
100
AcDbPolyline
 90
        2
 70
     0
 43
0.5
 10
149.508346784236
 20
66.6989721471499
 10
149.508346784236
 20
72.1989721471499
  0
LWPOLYLINE
  5
25E
330
1F
100
AcDbEntity
  8
Sichtbare_Kanten_TC_020513_DIN_
  6
Continuous
 62
     7
100
AcDbPolyline
 90
        2
 70
     0
 43
0.5
 10
29.40834678423579
 20
66.6989721471499
 10
29.40834678423579
 20
72.1989721471499
  0
LWPOLYLINE
  5
25F
330
1F
100
AcDbEntity
  8
Sichtbare_Kanten_TC_020513_DIN_
  6
Continuous
 62
     7
100
AcDbPolyline
 90
        2
 70
     0
 43
0.5
 10
153.958346784236
 20
78.1989721471499
 10
151.958346784236
 20
78.1989721471499
  0
LWPOLYLINE
  5
260
330
1F
100
AcDbEntity
  8
Sichtbare_Kanten_TC_020513_DIN_
  6
Continuous
 62
     7
100
AcDbPolyline
 90
        2
 70
     0
 43
0.5
 10
153.958346784236
 20
78.1989721471499
 10
153.958346784236
 20
77.93579407852963
  0
LWPOLYLINE
  5
261
330
1F
100
AcDbEntity
  8
Sichtbare_Kanten_TC_020513_DIN_
  6
Continuous
 62
     7
100
AcDbPolyline
 90
        2
 70
     0
 43
0.5
 10
153.958346784236
 20
77.8684352895103
 10
153.958346784236
 20
77.93579407852963
  0
LWPOLYLINE
  5
262
330
1F
100
AcDbEntity
  8
Sichtbare_Kanten_TC_020513_DIN_
  6
Continuous
 62
     7
100
AcDbPolyline
 90
        2
 70
     0
 43
0.5
 10
151.958346784236
 20
77.93579407852963
 10
151.958346784236
 20
78.1989721471499
  0
LWPOLYLINE
  5
263
330
1F
100
AcDbEntity
  8
Sichtbare_Kanten_TC_020513_DIN_
  6
Continuous
 62
     7
100
AcDbPolyline
 90
        2
 70
     0
 43
0.5
 10
151.958346784236
 20
77.93579407852963
 10
151.958346784236
 20
77.8684352895103
  0
LWPOLYLINE
  5
264
330
1F
100
AcDbEntity
  8
Sichtbare_Kanten_TC_020513_DIN_
  6
Continuous
 62
     7
100
AcDbPolyline
 90
        2
 70
     0
 43
0.5
 10
151.958346784236
 20
74.88528002989761
 10
151.958346784236
 20
73.36999956137453
  0
LWPOLYLINE
  5
265
330
1F
100
AcDbEntity
  8
Sichtbare_Kanten_TC_020513_DIN_
  6
Continuous
 62
     7
100
AcDbPolyline
 90
        2
 70
     0
 43
0.5
 10
151.958346784236
 20
71.11430636049653
 10
151.958346784236
 20
73.36999956137453
  0
LWPOLYLINE
  5
266
330
1F
100
AcDbEntity
  8
Sichtbare_Kanten_TC_020513_DIN_
  6
Continuous
 62
     7
100
AcDbPolyline
 90
        2
 70
     0
 43
0.5
 10
151.958346784236
 20
71.11430636049653
 10
151.958346784236
 20
60.19897214714991
  0
LWPOLYLINE
  5
267
330
1F
100
AcDbEntity
  8
Sichtbare_Kanten_TC_020513_DIN_
  6
Continuous
 62
     7
100
AcDbPolyline
 90
        2
 70
     0
 43
0.5
 10
153.958346784236
 20
60.19897214714991
 10
153.958346784236
 20
71.11430636049641
  0
LWPOLYLINE
  5
268
330
1F
100
AcDbEntity
  8
Sichtbare_Kanten_TC_020513_DIN_
  6
Continuous
 62
     7
100
AcDbPolyline
 90
        2
 70
     0
 43
0.5
 10
153.958346784236
 20
73.36999956137453
 10
153.958346784236
 20
71.11430636049641
  0
LWPOLYLINE
  5
269
330
1F
100
AcDbEntity
  8
Sichtbare_Kanten_TC_020513_DIN_
  6
Continuous
 62
     7
100
AcDbPolyline
 90
        2
 70
     0
 43
0.5
 10
153.958346784236
 20
73.36999956137453
 10
153.958346784236
 20
74.88528002989761
  0
LWPOLYLINE
  5
26A
330
1F
100
AcDbEntity
  8
Sichtbare_Kanten_TC_020513_DIN_
  6
Continuous
 62
     7
100
AcDbPolyline
 90
        2
 70
     0
 43
0.5
 10
23.4583467842358
 20
76.6989721471499
 10
22.9583467842358
 20
76.6989721471499
  0
LWPOLYLINE
  5
26B
330
1F
100
AcDbEntity
  8
Sichtbare_Kanten_TC_020513_DIN_
  6
Continuous
 62
     7
100
AcDbPolyline
 90
        2
 70
     0
 43
0.5
 10
23.4583467842358
 20
71.6989721471499
 10
22.9583467842358
 20
71.6989721471499
  0
LWPOLYLINE
  5
26C
330
1F
100
AcDbEntity
  8
Sichtbare_Kanten_TC_020513_DIN_
  6
Continuous
 62
     7
100
AcDbPolyline
 90
        2
 70
     0
 43
0.5
 10
22.7083467842358
 20
78.6989721471499
 10
21.7083467842358
 20
78.6989721471499
  0
LWPOLYLINE
  5
26D
330
1F
100
AcDbEntity
  8
Sichtbare_Kanten_TC_020513_DIN_
  6
Continuous
 62
     7
100
AcDbPolyline
 90
        2
 70
     0
 43
0.5
 10
22.7083467842358
 20
69.6989721471499
 10
21.7083467842358
 20
69.6989721471499
  0
LWPOLYLINE
  5
26E
330
1F
100
AcDbEntity
  8
Sichtbare_Kanten_TC_020513_DIN_
  6
Continuous
 62
     7
100
AcDbPolyline
 90
        2
 70
     0
 43
0.5
 10
29.4583467842358
 20
76.6989721471499
 10
28.45834678423569
 20
76.6989721471499
  0
LWPOLYLINE
  5
26F
330
1F
100
AcDbEntity
  8
Sichtbare_Kanten_TC_020513_DIN_
  6
Continuous
 62
     7
100
AcDbPolyline
 90
        2
 70
     0
 43
0.5
 10
29.40834678423579
 20
71.6989721471499
 10
28.45834678423569
 20
71.6989721471499
  0
LWPOLYLINE
  5
270
330
1F
100
AcDbEntity
  8
Sichtbare_Kanten_TC_020513_DIN_
  6
Continuous
 62
     7
100
AcDbPolyline
 90
        2
 70
     0
 43
0.5
 10
26.9583467842358
 20
78.1989721471499
 10
24.9583467842358
 20
78.1989721471499
  0
LWPOLYLINE
  5
271
330
1F
100
AcDbEntity
  8
Sichtbare_Kanten_TC_020513_DIN_
  6
Continuous
 62
     7
100
AcDbPolyline
 90
        2
 70
     0
 43
0.5
 10
22.9583467842358
 20
78.4489721471499
 10
22.9583467842358
 20
69.9489721471499
  0
LWPOLYLINE
  5
272
330
1F
100
AcDbEntity
  8
Sichtbare_Kanten_TC_020513_DIN_
  6
Continuous
 62
     7
100
AcDbPolyline
 90
        2
 70
     0
 43
0.5
 10
21.4583467842358
 20
78.4489721471499
 10
21.4583467842358
 20
69.9489721471499
  0
LWPOLYLINE
  5
273
330
1F
100
AcDbEntity
  8
Sichtbare_Kanten_TC_020513_DIN_
  6
Continuous
 62
     7
100
AcDbPolyline
 90
        2
 70
     0
 43
0.5
 10
23.4583467842358
 20
77.9489721471499
 10
23.4583467842358
 20
60.19897214714991
  0
LWPOLYLINE
  5
274
330
1F
100
AcDbEntity
  8
Sichtbare_Kanten_TC_020513_DIN_
  6
Continuous
 62
     7
100
AcDbPolyline
 90
        2
 70
     0
 43
0.5
 10
23.4583467842358
 20
46.19897214714992
 10
23.4583467842358
 20
45.94897214714992
  0
LWPOLYLINE
  5
275
330
1F
100
AcDbEntity
  8
Sichtbare_Kanten_TC_020513_DIN_
  6
Continuous
 62
     7
100
AcDbPolyline
 90
        2
 70
     0
 43
0.5
 10
24.9583467842358
 20
45.94897214714992
 10
23.4583467842358
 20
45.94897214714992
  0
LWPOLYLINE
  5
276
330
1F
100
AcDbEntity
  8
Sichtbare_Kanten_TC_020513_DIN_
  6
Continuous
 62
     7
100
AcDbPolyline
 90
        2
 70
     0
 43
0.5
 10
24.9583467842358
 20
77.9489721471499
 10
23.4583467842358
 20
77.9489721471499
  0
LWPOLYLINE
  5
277
330
1F
100
AcDbEntity
  8
Sichtbare_Kanten_TC_020513_DIN_
  6
Continuous
 62
     7
100
AcDbPolyline
 90
        2
 70
     0
 43
0.5
 10
28.4583467842358
 20
77.9489721471499
 10
28.4583467842358
 20
60.19897214714991
  0
LWPOLYLINE
  5
278
330
1F
100
AcDbEntity
  8
Sichtbare_Kanten_TC_020513_DIN_
  6
Continuous
 62
     7
100
AcDbPolyline
 90
        2
 70
     0
 43
0.5
 10
28.4583467842358
 20
46.19897214714992
 10
28.4583467842358
 20
45.94897214714992
  0
LWPOLYLINE
  5
279
330
1F
100
AcDbEntity
  8
Sichtbare_Kanten_TC_020513_DIN_
  6
Continuous
 62
     7
100
AcDbPolyline
 90
        2
 70
     0
 43
0.5
 10
26.9583467842358
 20
46.19897214714992
 10
26.9583467842358
 20
45.94897214714992
  0
LWPOLYLINE
  5
27A
330
1F
100
AcDbEntity
  8
Sichtbare_Kanten_TC_020513_DIN_
  6
Continuous
 62
     7
100
AcDbPolyline
 90
        2
 70
     0
 43
0.5
 10
28.4583467842358
 20
45.94897214714992
 10
26.9583467842358
 20
45.94897214714992
  0
LWPOLYLINE
  5
27B
330
1F
100
AcDbEntity
  8
Sichtbare_Kanten_TC_020513_DIN_
  6
Continuous
 62
     7
100
AcDbPolyline
 90
        2
 70
     0
 43
0.5
 10
28.4583467842358
 20
77.9489721471499
 10
26.9583467842358
 20
77.9489721471499
  0
LWPOLYLINE
  5
27C
330
1F
100
AcDbEntity
  8
Sichtbare_Kanten_TC_020513_DIN_
  6
Continuous
 62
     7
100
AcDbPolyline
 90
        2
 70
     0
 43
0.5
 10
28.65834678423579
 20
67.64897214714992
 10
28.65834678423579
 20
69.74897214714991
  0
LWPOLYLINE
  5
27D
330
1F
100
AcDbEntity
  8
Sichtbare_Kanten_TC_020513_DIN_
  6
Continuous
 62
     7
100
AcDbPolyline
 90
        2
 70
     0
 43
0.5
 10
23.25834678423581
 20
67.64897214714992
 10
23.25834678423581
 20
69.74897214714991
  0
LWPOLYLINE
  5
27E
330
1F
100
AcDbEntity
  8
Sichtbare_Kanten_TC_020513_DIN_
  6
Continuous
 62
     7
100
AcDbPolyline
 90
        2
 70
     0
 43
0.5
 10
24.9583467842358
 20
46.19897214714992
 10
24.9583467842358
 20
45.94897214714992
  0
LWPOLYLINE
  5
27F
330
1F
100
AcDbEntity
  8
Sichtbare_Kanten_TC_020513_DIN_
  6
Continuous
 62
     7
100
AcDbPolyline
 90
        2
 70
     0
 43
0.5
 10
24.9583467842358
 20
77.8684352895103
 10
24.9583467842358
 20
74.88528002989761
  0
LWPOLYLINE
  5
280
330
1F
100
AcDbEntity
  8
Sichtbare_Kanten_TC_020513_DIN_
  6
Continuous
 62
     7
100
AcDbPolyline
 90
        2
 70
     0
 43
0.5
 10
26.9583467842358
 20
77.8684352895103
 10
26.9583467842358
 20
74.88528002989761
  0
LWPOLYLINE
  5
281
330
1F
100
AcDbEntity
  8
Sichtbare_Kanten_TC_020513_DIN_
  6
Continuous
 62
     7
100
AcDbPolyline
 90
        2
 70
     0
 43
0.5
 10
26.9583467842358
 20
77.93579407852963
 10
26.9583467842358
 20
78.1989721471499
  0
LWPOLYLINE
  5
282
330
1F
100
AcDbEntity
  8
Sichtbare_Kanten_TC_020513_DIN_
  6
Continuous
 62
     7
100
AcDbPolyline
 90
        2
 70
     0
 43
0.5
 10
26.9583467842358
 20
77.93579407852963
 10
26.9583467842358
 20
77.8684352895103
  0
LWPOLYLINE
  5
283
330
1F
100
AcDbEntity
  8
Sichtbare_Kanten_TC_020513_DIN_
  6
Continuous
 62
     7
100
AcDbPolyline
 90
        2
 70
     0
 43
0.5
 10
26.9583467842358
 20
71.11430636049653
 10
26.9583467842358
 20
60.19897214714991
  0
LWPOLYLINE
  5
284
330
1F
100
AcDbEntity
  8
Sichtbare_Kanten_TC_020513_DIN_
  6
Continuous
 62
     7
100
AcDbPolyline
 90
        2
 70
     0
 43
0.5
 10
26.9583467842358
 20
71.11430636049653
 10
26.9583467842358
 20
73.36999956137453
  0
LWPOLYLINE
  5
285
330
1F
100
AcDbEntity
  8
Sichtbare_Kanten_TC_020513_DIN_
  6
Continuous
 62
     7
100
AcDbPolyline
 90
        2
 70
     0
 43
0.5
 10
26.9583467842358
 20
74.88528002989761
 10
26.9583467842358
 20
73.36999956137453
  0
LWPOLYLINE
  5
286
330
1F
100
AcDbEntity
  8
Sichtbare_Kanten_TC_020513_DIN_
  6
Continuous
 62
     7
100
AcDbPolyline
 90
        2
 70
     0
 43
0.5
 10
24.9583467842358
 20
78.1989721471499
 10
24.9583467842358
 20
77.93579407852963
  0
LWPOLYLINE
  5
287
330
1F
100
AcDbEntity
  8
Sichtbare_Kanten_TC_020513_DIN_
  6
Continuous
 62
     7
100
AcDbPolyline
 90
        2
 70
     0
 43
0.5
 10
24.9583467842358
 20
77.8684352895103
 10
24.9583467842358
 20
77.93579407852963
  0
LWPOLYLINE
  5
288
330
1F
100
AcDbEntity
  8
Sichtbare_Kanten_TC_020513_DIN_
  6
Continuous
 62
     7
100
AcDbPolyline
 90
        2
 70
     0
 43
0.5
 10
24.9583467842358
 20
73.36999956137453
 10
24.9583467842358
 20
74.88528002989761
  0
LWPOLYLINE
  5
289
330
1F
100
AcDbEntity
  8
Sichtbare_Kanten_TC_020513_DIN_
  6
Continuous
 62
     7
100
AcDbPolyline
 90
        2
 70
     0
 43
0.5
 10
24.9583467842358
 20
73.36999956137453
 10
24.9583467842358
 20
71.11430636049653
  0
LWPOLYLINE
  5
28A
330
1F
100
AcDbEntity
  8
Sichtbare_Kanten_TC_020513_DIN_
  6
Continuous
 62
     7
100
AcDbPolyline
 90
        2
 70
     0
 43
0.5
 10
24.9583467842358
 20
60.19897214714991
 10
24.9583467842358
 20
71.11430636049653
  0
LWPOLYLINE
  5
28B
330
1F
100
AcDbEntity
  8
Sichtbare_Kanten_TC_020513_DIN_
  6
Continuous
 62
     7
100
AcDbPolyline
 90
        2
 70
     0
 43
0.5
 10
36.97257560503658
 20
46.19897262398712
 10
39.71466583025631
 20
46.19897262398712
  0
LWPOLYLINE
  5
28C
330
1F
100
AcDbEntity
  8
Sichtbare_Kanten_TC_020513_DIN_
  6
Continuous
 62
     7
100
AcDbPolyline
 90
        2
 70
     0
 43
0.5
 10
139.202027738215
 20
46.19897262398712
 10
141.944117963435
 20
46.19897262398712
  0
LWPOLYLINE
  5
28D
330
1F
100
AcDbEntity
  8
Sichtbare_Kanten_TC_020513_DIN_
  6
Continuous
 62
     7
100
AcDbPolyline
 90
        2
 70
     0
 43
0.5
 10
36.97257758659379
 20
46.19897214714992
 10
22.9583467842358
 20
46.19897214714992
  0
LWPOLYLINE
  5
28E
330
1F
100
AcDbEntity
  8
Sichtbare_Kanten_TC_020513_DIN_
  6
Continuous
 62
     7
100
AcDbPolyline
 90
        2
 70
     0
 43
0.5
 10
22.9583467842358
 20
46.19897214714992
 10
22.9583467842358
 20
60.19897214714991
  0
LWPOLYLINE
  5
28F
330
1F
100
AcDbEntity
  8
Sichtbare_Kanten_TC_020513_DIN_
  6
Continuous
 62
     7
100
AcDbPolyline
 90
        2
 70
     0
 43
0.5
 10
155.958346784236
 20
46.19897214714992
 10
155.958346784236
 20
60.19897214714991
  0
LWPOLYLINE
  5
290
330
1F
100
AcDbEntity
  8
Sichtbare_Kanten_TC_020513_DIN_
  6
Continuous
 62
     7
100
AcDbPolyline
 90
        2
 70
     0
 43
0.5
 10
141.944115981878
 20
46.19897214714992
 10
155.958346784236
 20
46.19897214714992
  0
LWPOLYLINE
  5
291
330
1F
100
AcDbEntity
  8
Sichtbare_Kanten_TC_020513_DIN_
  6
Continuous
 62
     7
100
AcDbPolyline
 90
        2
 70
     0
 43
0.5
 10
111.906674251508
 20
60.19897214714991
 10
131.510019316964
 20
60.19897214714991
  0
LWPOLYLINE
  5
292
330
1F
100
AcDbEntity
  8
Sichtbare_Kanten_TC_020513_DIN_
  6
Continuous
 62
     7
100
AcDbPolyline
 90
        2
 70
     0
 43
0.5
 10
90.40667425150798
 20
60.19897214714991
 10
110.010019316963
 20
60.19897214714991
  0
LWPOLYLINE
  5
293
330
1F
100
AcDbEntity
  8
Sichtbare_Kanten_TC_020513_DIN_
  6
Continuous
 62
     7
100
AcDbPolyline
 90
        2
 70
     0
 43
0.5
 10
68.90667425150798
 20
60.19897214714991
 10
88.51001931696362
 20
60.19897214714991
  0
LWPOLYLINE
  5
294
330
1F
100
AcDbEntity
  8
Sichtbare_Kanten_TC_020513_DIN_
  6
Continuous
 62
     7
100
AcDbPolyline
 90
        2
 70
     0
 43
0.5
 10
47.40667425150798
 20
60.19897214714991
 10
67.01001931696362
 20
60.19897214714991
  0
LWPOLYLINE
  5
295
330
1F
100
AcDbEntity
  8
Sichtbare_Kanten_TC_020513_DIN_
  6
Continuous
 62
     7
100
AcDbPolyline
 90
        2
 70
     0
 43
0.5
 10
22.9583467842358
 20
60.19897214714991
 10
46.4583467842358
 20
60.19897214714991
  0
LWPOLYLINE
  5
296
330
1F
100
AcDbEntity
  8
Sichtbare_Kanten_TC_020513_DIN_
  6
Continuous
 62
     7
100
AcDbPolyline
 90
        2
 70
     0
 43
0.5
 10
132.458346784236
 20
60.19897214714991
 10
155.958346784236
 20
60.19897214714991
  0
LWPOLYLINE
  5
297
330
1F
100
AcDbEntity
  8
Sichtbare_Kanten_TC_020513_DIN_
  6
Continuous
 62
     7
100
AcDbPolyline
 90
        2
 70
     0
 43
0.5
 10
47.40667425150798
 20
60.19897214714991
 10
57.2083467842358
 20
52.79217837545031
  0
LWPOLYLINE
  5
298
330
1F
100
AcDbEntity
  8
Sichtbare_Kanten_TC_020513_DIN_
  6
Continuous
 62
     7
100
AcDbPolyline
 90
        2
 70
     0
 43
0.5
 10
67.02374921938872
 20
60.20934737193212
 10
67.00959243776458
 20
60.19897214714991
  0
LWPOLYLINE
  5
299
330
1F
100
AcDbEntity
  8
Sichtbare_Kanten_TC_020513_DIN_
  6
Continuous
 62
     7
100
AcDbPolyline
 90
        2
 70
     0
 43
0.5
 10
47.40710113070691
 20
60.19897214714991
 10
47.39294434908283
 20
60.20934737193212
  0
LWPOLYLINE
  5
29A
330
1F
100
AcDbEntity
  8
Sichtbare_Kanten_TC_020513_DIN_
  6
Continuous
 62
     7
100
AcDbPolyline
 90
        2
 70
     0
 43
0.5
 10
57.2083467842358
 20
51.31822039538991
 10
57.2083467842358
 20
52.79217837545031
  0
LWPOLYLINE
  5
29B
330
1F
100
AcDbEntity
  8
Sichtbare_Kanten_TC_020513_DIN_
  6
Continuous
 62
     7
100
AcDbPolyline
 90
        2
 70
     0
 43
0.5
 10
57.2083467842358
 20
52.79217837545031
 10
67.01001931696362
 20
60.19897214714991
  0
LWPOLYLINE
  5
29C
330
1F
100
AcDbEntity
  8
Sichtbare_Kanten_TC_020513_DIN_
  6
Continuous
 62
     7
100
AcDbPolyline
 90
        2
 70
     0
 43
0.5
 10
132.917078804213
 20
48.26558242012401
 10
45.99961476425818
 20
48.26558242012401
  0
LWPOLYLINE
  5
29D
330
1F
100
AcDbEntity
  8
Sichtbare_Kanten_TC_020513_DIN_
  6
Continuous
 62
     7
100
AcDbPolyline
 90
        2
 70
     0
 43
0.5
 10
45.94594581530112
 20
48.28295010091512
 10
57.2083467842358
 20
48.28295010091512
  0
LWPOLYLINE
  5
29E
330
1F
100
AcDbEntity
  8
Sichtbare_Kanten_TC_020513_DIN_
  6
Continuous
 62
     7
100
AcDbPolyline
 90
        2
 70
     0
 43
0.5
 10
57.2083467842358
 20
48.28295010091512
 10
78.7083467842358
 20
48.28295010091512
  0
LWPOLYLINE
  5
29F
330
1F
100
AcDbEntity
  8
Sichtbare_Kanten_TC_020513_DIN_
  6
Continuous
 62
     7
100
AcDbPolyline
 90
        2
 70
     0
 43
0.5
 10
78.7083467842358
 20
48.28295010091512
 10
100.2083467842357
 20
48.28295010091512
  0
LWPOLYLINE
  5
2A0
330
1F
100
AcDbEntity
  8
Sichtbare_Kanten_TC_020513_DIN_
  6
Continuous
 62
     7
100
AcDbPolyline
 90
        2
 70
     0
 43
0.5
 10
100.2083467842357
 20
48.28295010091512
 10
121.708346784236
 20
48.28295010091512
  0
LWPOLYLINE
  5
2A1
330
1F
100
AcDbEntity
  8
Sichtbare_Kanten_TC_020513_DIN_
  6
Continuous
 62
     7
100
AcDbPolyline
 90
        2
 70
     0
 43
0.5
 10
121.708346784236
 20
48.28295010091512
 10
132.970747753171
 20
48.28295010091512
  0
LWPOLYLINE
  5
2A2
330
1F
100
AcDbEntity
  8
Sichtbare_Kanten_TC_020513_DIN_
  6
Continuous
 62
     7
100
AcDbPolyline
 90
        2
 70
     0
 43
0.5
 10
45.43665043528051
 20
48.27897214714992
 10
133.480043133191
 20
48.27897214714992
  0
LWPOLYLINE
  5
2A3
330
1F
100
AcDbEntity
  8
Sichtbare_Kanten_TC_020513_DIN_
  6
Continuous
 62
     7
100
AcDbPolyline
 90
        2
 70
     0
 43
0.5
 10
67.9583467842358
 20
58.02292876401082
 10
57.2083467842358
 20
48.28295010091512
  0
LWPOLYLINE
  5
2A4
330
1F
100
AcDbEntity
  8
Sichtbare_Kanten_TC_020513_DIN_
  6
Continuous
 62
     7
100
AcDbPolyline
 90
        2
 70
     0
 43
0.5
 10
57.2083467842358
 20
48.28295010091512
 10
46.4583467842358
 20
58.02292876401082
  0
LWPOLYLINE
  5
2A5
330
1F
100
AcDbEntity
  8
Sichtbare_Kanten_TC_020513_DIN_
  6
Continuous
 62
     7
100
AcDbPolyline
 90
        2
 70
     0
 43
0.5
 10
46.4583467842358
 20
58.02292876401082
 10
46.4583467842358
 20
60.19897214714991
  0
LWPOLYLINE
  5
2A6
330
1F
100
AcDbEntity
  8
Sichtbare_Kanten_TC_020513_DIN_
  6
Continuous
 62
     7
100
AcDbPolyline
 90
        2
 70
     0
 43
0.5
 10
47.40667425150798
 20
60.19897214714991
 10
57.2083467842358
 20
51.31822039538991
  0
LWPOLYLINE
  5
2A7
330
1F
100
AcDbEntity
  8
Sichtbare_Kanten_TC_020513_DIN_
  6
Continuous
 62
     7
100
AcDbPolyline
 90
        2
 70
     0
 43
0.5
 10
57.2083467842358
 20
51.31822039538991
 10
67.01001931696362
 20
60.19897214714991
  0
LWPOLYLINE
  5
2A8
330
1F
100
AcDbEntity
  8
Sichtbare_Kanten_TC_020513_DIN_
  6
Continuous
 62
     7
100
AcDbPolyline
 90
        2
 70
     0
 43
0.5
 10
90.40667425150798
 20
60.19897214714991
 10
88.51001931696362
 20
60.19897214714991
  0
LWPOLYLINE
  5
2A9
330
1F
100
AcDbEntity
  8
Sichtbare_Kanten_TC_020513_DIN_
  6
Continuous
 62
     7
100
AcDbPolyline
 90
        2
 70
     0
 43
0.5
 10
68.90667425150798
 20
60.19897214714991
 10
67.01001931696362
 20
60.19897214714991
  0
LWPOLYLINE
  5
2AA
330
1F
100
AcDbEntity
  8
Sichtbare_Kanten_TC_020513_DIN_
  6
Continuous
 62
     7
100
AcDbPolyline
 90
        2
 70
     0
 43
0.5
 10
67.01001931696362
 20
60.19897214714991
 10
67.02374921938872
 20
60.20934737193212
  0
LWPOLYLINE
  5
2AB
330
1F
100
AcDbEntity
  8
Sichtbare_Kanten_TC_020513_DIN_
  6
Continuous
 62
     7
100
AcDbPolyline
 90
        2
 70
     0
 43
0.5
 10
67.02374921938872
 20
60.20934737193212
 10
68.89294434908277
 20
60.20934737193212
  0
LWPOLYLINE
  5
2AC
330
1F
100
AcDbEntity
  8
Sichtbare_Kanten_TC_020513_DIN_
  6
Continuous
 62
     7
100
AcDbPolyline
 90
        2
 70
     0
 43
0.5
 10
47.40667425150798
 20
60.19897214714991
 10
46.4583467842358
 20
60.19897214714991
  0
LWPOLYLINE
  5
2AD
330
1F
100
AcDbEntity
  8
Sichtbare_Kanten_TC_020513_DIN_
  6
Continuous
 62
     7
100
AcDbPolyline
 90
        2
 70
     0
 43
0.5
 10
46.4583467842358
 20
60.19897214714991
 10
46.4583467842358
 20
60.20934737193212
  0
LWPOLYLINE
  5
2AE
330
1F
100
AcDbEntity
  8
Sichtbare_Kanten_TC_020513_DIN_
  6
Continuous
 62
     7
100
AcDbPolyline
 90
        2
 70
     0
 43
0.5
 10
46.4583467842358
 20
60.20934737193212
 10
47.39294434908283
 20
60.20934737193212
  0
LWPOLYLINE
  5
2AF
330
1F
100
AcDbEntity
  8
Sichtbare_Kanten_TC_020513_DIN_
  6
Continuous
 62
     7
100
AcDbPolyline
 90
        2
 70
     0
 43
0.5
 10
47.39294434908283
 20
60.20934737193212
 10
47.40667425150798
 20
60.19897214714991
  0
LWPOLYLINE
  5
2B0
330
1F
100
AcDbEntity
  8
Sichtbare_Kanten_TC_020513_DIN_
  6
Continuous
 62
     7
100
AcDbPolyline
 90
        2
 70
     0
 43
0.5
 10
132.458346784236
 20
60.19897214714991
 10
131.510019316964
 20
60.19897214714991
  0
LWPOLYLINE
  5
2B1
330
1F
100
AcDbEntity
  8
Sichtbare_Kanten_TC_020513_DIN_
  6
Continuous
 62
     7
100
AcDbPolyline
 90
        2
 70
     0
 43
0.5
 10
111.906674251508
 20
60.19897214714991
 10
110.010019316963
 20
60.19897214714991
  0
LWPOLYLINE
  5
2B2
330
1F
100
AcDbEntity
  8
Sichtbare_Kanten_TC_020513_DIN_
  6
Continuous
 62
     7
100
AcDbPolyline
 90
        2
 70
     0
 43
0.5
 10
68.90667425150798
 20
60.19897214714991
 10
78.7083467842358
 20
52.79217837545031
  0
LWPOLYLINE
  5
2B3
330
1F
100
AcDbEntity
  8
Sichtbare_Kanten_TC_020513_DIN_
  6
Continuous
 62
     7
100
AcDbPolyline
 90
        2
 70
     0
 43
0.5
 10
121.708346784236
 20
52.79217837545031
 10
131.510019316964
 20
60.19897214714991
  0
LWPOLYLINE
  5
2B4
330
1F
100
AcDbEntity
  8
Sichtbare_Kanten_TC_020513_DIN_
  6
Continuous
 62
     7
100
AcDbPolyline
 90
        2
 70
     0
 43
0.5
 10
131.523749219389
 20
60.20934737193212
 10
131.509592437765
 20
60.19897214714991
  0
LWPOLYLINE
  5
2B5
330
1F
100
AcDbEntity
  8
Sichtbare_Kanten_TC_020513_DIN_
  6
Continuous
 62
     7
100
AcDbPolyline
 90
        2
 70
     0
 43
0.5
 10
111.906674251508
 20
60.19897214714991
 10
121.708346784236
 20
52.79217837545031
  0
LWPOLYLINE
  5
2B6
330
1F
100
AcDbEntity
  8
Sichtbare_Kanten_TC_020513_DIN_
  6
Continuous
 62
     7
100
AcDbPolyline
 90
        2
 70
     0
 43
0.5
 10
121.708346784236
 20
51.31822039538991
 10
121.708346784236
 20
52.79217837545031
  0
LWPOLYLINE
  5
2B7
330
1F
100
AcDbEntity
  8
Sichtbare_Kanten_TC_020513_DIN_
  6
Continuous
 62
     7
100
AcDbPolyline
 90
        2
 70
     0
 43
0.5
 10
111.907101130707
 20
60.19897214714991
 10
111.892944349083
 20
60.20934737193212
  0
LWPOLYLINE
  5
2B8
330
1F
100
AcDbEntity
  8
Sichtbare_Kanten_TC_020513_DIN_
  6
Continuous
 62
     7
100
AcDbPolyline
 90
        2
 70
     0
 43
0.5
 10
100.2083467842357
 20
52.79217837545031
 10
110.010019316963
 20
60.19897214714991
  0
LWPOLYLINE
  5
2B9
330
1F
100
AcDbEntity
  8
Sichtbare_Kanten_TC_020513_DIN_
  6
Continuous
 62
     7
100
AcDbPolyline
 90
        2
 70
     0
 43
0.5
 10
110.023749219389
 20
60.20934737193212
 10
110.009592437765
 20
60.19897214714991
  0
LWPOLYLINE
  5
2BA
330
1F
100
AcDbEntity
  8
Sichtbare_Kanten_TC_020513_DIN_
  6
Continuous
 62
     7
100
AcDbPolyline
 90
        2
 70
     0
 43
0.5
 10
68.9071011307069
 20
60.19897214714991
 10
68.89294434908277
 20
60.20934737193212
  0
LWPOLYLINE
  5
2BB
330
1F
100
AcDbEntity
  8
Sichtbare_Kanten_TC_020513_DIN_
  6
Continuous
 62
     7
100
AcDbPolyline
 90
        2
 70
     0
 43
0.5
 10
90.40667425150798
 20
60.19897214714991
 10
100.2083467842357
 20
52.79217837545031
  0
LWPOLYLINE
  5
2BC
330
1F
100
AcDbEntity
  8
Sichtbare_Kanten_TC_020513_DIN_
  6
Continuous
 62
     7
100
AcDbPolyline
 90
        2
 70
     0
 43
0.5
 10
100.2083467842357
 20
51.31822039538991
 10
100.2083467842357
 20
52.79217837545031
  0
LWPOLYLINE
  5
2BD
330
1F
100
AcDbEntity
  8
Sichtbare_Kanten_TC_020513_DIN_
  6
Continuous
 62
     7
100
AcDbPolyline
 90
        2
 70
     0
 43
0.5
 10
78.7083467842358
 20
51.31822039538991
 10
78.7083467842358
 20
52.79217837545031
  0
LWPOLYLINE
  5
2BE
330
1F
100
AcDbEntity
  8
Sichtbare_Kanten_TC_020513_DIN_
  6
Continuous
 62
     7
100
AcDbPolyline
 90
        2
 70
     0
 43
0.5
 10
78.7083467842358
 20
52.79217837545031
 10
88.51001931696362
 20
60.19897214714991
  0
LWPOLYLINE
  5
2BF
330
1F
100
AcDbEntity
  8
Sichtbare_Kanten_TC_020513_DIN_
  6
Continuous
 62
     7
100
AcDbPolyline
 90
        2
 70
     0
 43
0.5
 10
88.52374921938872
 20
60.20934737193212
 10
88.50959243776458
 20
60.19897214714991
  0
LWPOLYLINE
  5
2C0
330
1F
100
AcDbEntity
  8
Sichtbare_Kanten_TC_020513_DIN_
  6
Continuous
 62
     7
100
AcDbPolyline
 90
        2
 70
     0
 43
0.5
 10
90.4071011307069
 20
60.19897214714991
 10
90.39294434908277
 20
60.20934737193212
  0
LWPOLYLINE
  5
2C1
330
1F
100
AcDbEntity
  8
Sichtbare_Kanten_TC_020513_DIN_
  6
Continuous
 62
     7
100
AcDbPolyline
 90
        2
 70
     0
 43
0.5
 10
90.40667425150798
 20
60.19897214714991
 10
100.2083467842357
 20
51.31822039538991
  0
LWPOLYLINE
  5
2C2
330
1F
100
AcDbEntity
  8
Sichtbare_Kanten_TC_020513_DIN_
  6
Continuous
 62
     7
100
AcDbPolyline
 90
        2
 70
     0
 43
0.5
 10
100.2083467842357
 20
51.31822039538991
 10
110.010019316963
 20
60.19897214714991
  0
LWPOLYLINE
  5
2C3
330
1F
100
AcDbEntity
  8
Sichtbare_Kanten_TC_020513_DIN_
  6
Continuous
 62
     7
100
AcDbPolyline
 90
        2
 70
     0
 43
0.5
 10
111.906674251508
 20
60.19897214714991
 10
121.708346784236
 20
51.31822039538991
  0
LWPOLYLINE
  5
2C4
330
1F
100
AcDbEntity
  8
Sichtbare_Kanten_TC_020513_DIN_
  6
Continuous
 62
     7
100
AcDbPolyline
 90
        2
 70
     0
 43
0.5
 10
121.708346784236
 20
51.31822039538991
 10
131.510019316964
 20
60.19897214714991
  0
LWPOLYLINE
  5
2C5
330
1F
100
AcDbEntity
  8
Sichtbare_Kanten_TC_020513_DIN_
  6
Continuous
 62
     7
100
AcDbPolyline
 90
        2
 70
     0
 43
0.5
 10
132.458346784236
 20
60.19897214714991
 10
132.458346784236
 20
58.02292876401082
  0
LWPOLYLINE
  5
2C6
330
1F
100
AcDbEntity
  8
Sichtbare_Kanten_TC_020513_DIN_
  6
Continuous
 62
     7
100
AcDbPolyline
 90
        2
 70
     0
 43
0.5
 10
132.458346784236
 20
58.02292876401082
 10
121.708346784236
 20
48.28295010091512
  0
LWPOLYLINE
  5
2C7
330
1F
100
AcDbEntity
  8
Sichtbare_Kanten_TC_020513_DIN_
  6
Continuous
 62
     7
100
AcDbPolyline
 90
        2
 70
     0
 43
0.5
 10
121.708346784236
 20
48.28295010091512
 10
110.958346784236
 20
58.02292876401082
  0
LWPOLYLINE
  5
2C8
330
1F
100
AcDbEntity
  8
Sichtbare_Kanten_TC_020513_DIN_
  6
Continuous
 62
     7
100
AcDbPolyline
 90
        2
 70
     0
 43
0.5
 10
110.958346784236
 20
58.02292876401082
 10
100.2083467842357
 20
48.28295010091512
  0
LWPOLYLINE
  5
2C9
330
1F
100
AcDbEntity
  8
Sichtbare_Kanten_TC_020513_DIN_
  6
Continuous
 62
     7
100
AcDbPolyline
 90
        2
 70
     0
 43
0.5
 10
100.2083467842357
 20
48.28295010091512
 10
89.4583467842358
 20
58.02292876401082
  0
LWPOLYLINE
  5
2CA
330
1F
100
AcDbEntity
  8
Sichtbare_Kanten_TC_020513_DIN_
  6
Continuous
 62
     7
100
AcDbPolyline
 90
        2
 70
     0
 43
0.5
 10
89.4583467842358
 20
58.02292876401082
 10
78.7083467842358
 20
48.28295010091512
  0
LWPOLYLINE
  5
2CB
330
1F
100
AcDbEntity
  8
Sichtbare_Kanten_TC_020513_DIN_
  6
Continuous
 62
     7
100
AcDbPolyline
 90
        2
 70
     0
 43
0.5
 10
78.7083467842358
 20
48.28295010091512
 10
67.9583467842358
 20
58.02292876401082
  0
LWPOLYLINE
  5
2CC
330
1F
100
AcDbEntity
  8
Sichtbare_Kanten_TC_020513_DIN_
  6
Continuous
 62
     7
100
AcDbPolyline
 90
        2
 70
     0
 43
0.5
 10
68.90667425150798
 20
60.19897214714991
 10
78.7083467842358
 20
51.31822039538991
  0
LWPOLYLINE
  5
2CD
330
1F
100
AcDbEntity
  8
Sichtbare_Kanten_TC_020513_DIN_
  6
Continuous
 62
     7
100
AcDbPolyline
 90
        2
 70
     0
 43
0.5
 10
78.7083467842358
 20
51.31822039538991
 10
88.51001931696362
 20
60.19897214714991
  0
LWPOLYLINE
  5
2CE
330
1F
100
AcDbEntity
  8
Sichtbare_Kanten_TC_020513_DIN_
  6
Continuous
 62
     7
100
AcDbPolyline
 90
        2
 70
     0
 43
0.5
 10
88.52374921938872
 20
60.20934737193212
 10
90.39294434908277
 20
60.20934737193212
  0
LWPOLYLINE
  5
2CF
330
1F
100
AcDbEntity
  8
Sichtbare_Kanten_TC_020513_DIN_
  6
Continuous
 62
     7
100
AcDbPolyline
 90
        2
 70
     0
 43
0.5
 10
90.39294434908277
 20
60.20934737193212
 10
90.40667425150798
 20
60.19897214714991
  0
LWPOLYLINE
  5
2D0
330
1F
100
AcDbEntity
  8
Sichtbare_Kanten_TC_020513_DIN_
  6
Continuous
 62
     7
100
AcDbPolyline
 90
        2
 70
     0
 43
0.5
 10
88.51001931696362
 20
60.19897214714991
 10
88.52374921938872
 20
60.20934737193212
  0
LWPOLYLINE
  5
2D1
330
1F
100
AcDbEntity
  8
Sichtbare_Kanten_TC_020513_DIN_
  6
Continuous
 62
     7
100
AcDbPolyline
 90
        2
 70
     0
 43
0.5
 10
68.89294434908277
 20
60.20934737193212
 10
68.90667425150798
 20
60.19897214714991
  0
LWPOLYLINE
  5
2D2
330
1F
100
AcDbEntity
  8
Sichtbare_Kanten_TC_020513_DIN_
  6
Continuous
 62
     7
100
AcDbPolyline
 90
        2
 70
     0
 43
0.5
 10
131.523749219389
 20
60.20934737193212
 10
132.458346784236
 20
60.20934737193212
  0
LWPOLYLINE
  5
2D3
330
1F
100
AcDbEntity
  8
Sichtbare_Kanten_TC_020513_DIN_
  6
Continuous
 62
     7
100
AcDbPolyline
 90
        2
 70
     0
 43
0.5
 10
132.458346784236
 20
60.20934737193212
 10
132.458346784236
 20
60.19897214714991
  0
LWPOLYLINE
  5
2D4
330
1F
100
AcDbEntity
  8
Sichtbare_Kanten_TC_020513_DIN_
  6
Continuous
 62
     7
100
AcDbPolyline
 90
        2
 70
     0
 43
0.5
 10
131.510019316964
 20
60.19897214714991
 10
131.523749219389
 20
60.20934737193212
  0
LWPOLYLINE
  5
2D5
330
1F
100
AcDbEntity
  8
Sichtbare_Kanten_TC_020513_DIN_
  6
Continuous
 62
     7
100
AcDbPolyline
 90
        2
 70
     0
 43
0.5
 10
110.023749219389
 20
60.20934737193212
 10
111.892944349083
 20
60.20934737193212
  0
LWPOLYLINE
  5
2D6
330
1F
100
AcDbEntity
  8
Sichtbare_Kanten_TC_020513_DIN_
  6
Continuous
 62
     7
100
AcDbPolyline
 90
        2
 70
     0
 43
0.5
 10
111.892944349083
 20
60.20934737193212
 10
111.906674251508
 20
60.19897214714991
  0
LWPOLYLINE
  5
2D7
330
1F
100
AcDbEntity
  8
Sichtbare_Kanten_TC_020513_DIN_
  6
Continuous
 62
     7
100
AcDbPolyline
 90
        2
 70
     0
 43
0.5
 10
110.010019316963
 20
60.19897214714991
 10
110.023749219389
 20
60.20934737193212
  0
LWPOLYLINE
  5
2D8
330
1F
100
AcDbEntity
  8
Sichtbare_Kanten_TC_020513_DIN_
  6
Continuous
 62
     7
100
AcDbPolyline
 90
        2
 70
     0
 43
0.5
 10
89.4583467842358
 20
79.6989721471499
 10
88.7083467842358
 20
80.7346920229406
  0
LWPOLYLINE
  5
2D9
330
1F
100
AcDbEntity
  8
Sichtbare_Kanten_TC_020513_DIN_
  6
Continuous
 62
     7
100
AcDbPolyline
 90
        2
 70
     0
 43
0.5
 10
88.7083467842358
 20
80.7346920229406
 10
88.7083467842358
 20
78.07445278290783
  0
LWPOLYLINE
  5
2DA
330
1F
100
AcDbEntity
  8
Sichtbare_Kanten_TC_020513_DIN_
  6
Continuous
 62
     7
100
AcDbPolyline
 90
        2
 70
     0
 43
0.5
 10
88.2083467842358
 20
78.07445278290783
 10
88.2083467842358
 20
81.50618381908433
  0
LWPOLYLINE
  5
2DB
330
1F
100
AcDbEntity
  8
Sichtbare_Kanten_TC_020513_DIN_
  6
Continuous
 62
     7
100
AcDbPolyline
 90
        2
 70
     0
 43
0.5
 10
88.66083269056281
 20
81.65281075296392
 10
89.4583467842358
 20
80.5514758222435
  0
LWPOLYLINE
  5
2DC
330
1F
100
AcDbEntity
  8
Sichtbare_Kanten_TC_020513_DIN_
  6
Continuous
 62
     7
100
AcDbPolyline
 90
        2
 70
     0
 43
0.5
 10
89.4583467842358
 20
80.5514758222435
 10
90.25586087790873
 20
81.6528107529638
  0
LWPOLYLINE
  5
2DD
330
1F
100
AcDbEntity
  8
Sichtbare_Kanten_TC_020513_DIN_
  6
Continuous
 62
     7
100
AcDbPolyline
 90
        2
 70
     0
 43
0.5
 10
90.7083467842358
 20
81.50618381908433
 10
90.7083467842358
 20
76.8917604752155
  0
LWPOLYLINE
  5
2DE
330
1F
100
AcDbEntity
  8
Sichtbare_Kanten_TC_020513_DIN_
  6
Continuous
 62
     7
100
AcDbPolyline
 90
        2
 70
     0
 43
0.5
 10
90.20834678423569
 20
76.8917604752155
 10
90.20834678423569
 20
80.7346920229406
  0
LWPOLYLINE
  5
2DF
330
1F
100
AcDbEntity
  8
Sichtbare_Kanten_TC_020513_DIN_
  6
Continuous
 62
     7
100
AcDbPolyline
 90
        2
 70
     0
 43
0.5
 10
90.20834678423569
 20
80.7346920229406
 10
89.4583467842358
 20
79.6989721471499
  0
LWPOLYLINE
  5
2E0
330
1F
100
AcDbEntity
  8
Sichtbare_Kanten_TC_020513_DIN_
  6
Continuous
 62
     7
100
AcDbPolyline
 90
        2
 70
     0
 43
0.5
 10
87.65834678423579
 20
80.9004145883151
 10
87.65834678423579
 20
77.64192068713481
  0
LWPOLYLINE
  5
2E1
330
1F
100
AcDbEntity
  8
Sichtbare_Kanten_TC_020513_DIN_
  6
Continuous
 62
     7
100
AcDbPolyline
 90
        2
 70
     0
 43
0.5
 10
87.65834678423579
 20
77.64192068713481
 10
89.58327739760819
 20
76.53138379480461
  0
LWPOLYLINE
  5
2E2
330
1F
100
AcDbEntity
  8
Sichtbare_Kanten_TC_020513_DIN_
  6
Continuous
 62
     7
100
AcDbPolyline
 90
        2
 70
     0
 43
0.5
 10
89.33341617086342
 20
76.09829100178032
 10
87.2834161708634
 20
77.28098330947262
  0
LWPOLYLINE
  5
2E3
330
1F
100
AcDbEntity
  8
Sichtbare_Kanten_TC_020513_DIN_
  6
Continuous
 62
     7
100
AcDbPolyline
 90
        2
 70
     0
 43
0.5
 10
87.15834678423579
 20
77.4975297059847
 10
87.15834678423579
 20
80.9004145883151
  0
LWPOLYLINE
  5
2E4
330
1F
100
AcDbEntity
  8
Sichtbare_Kanten_TC_020513_DIN_
  6
Continuous
 62
     7
100
AcDbPolyline
 90
        2
 70
     0
 43
0.5
 10
82.9583467842358
 20
79.1989721471499
 10
89.4583467842358
 20
82.9489721471499
  0
LWPOLYLINE
  5
2E5
330
1F
100
AcDbEntity
  8
Sichtbare_Kanten_TC_020513_DIN_
  6
Continuous
 62
     7
100
AcDbPolyline
 90
        2
 70
     0
 43
0.5
 10
89.4583467842358
 20
82.9489721471499
 10
95.9583467842358
 20
79.1989721471499
  0
LWPOLYLINE
  5
2E6
330
1F
100
AcDbEntity
  8
Sichtbare_Kanten_TC_020513_DIN_
  6
Continuous
 62
     7
100
AcDbPolyline
 90
        2
 70
     0
 43
0.5
 10
95.9583467842358
 20
79.1989721471499
 10
89.4583467842358
 20
75.4489721471499
  0
LWPOLYLINE
  5
2E7
330
1F
100
AcDbEntity
  8
Sichtbare_Kanten_TC_020513_DIN_
  6
Continuous
 62
     7
100
AcDbPolyline
 90
        2
 70
     0
 43
0.5
 10
89.4583467842358
 20
75.4489721471499
 10
82.9583467842358
 20
79.1989721471499
  0
LWPOLYLINE
  5
2E8
330
1F
100
AcDbEntity
  8
Sichtbare_Kanten_TC_020513_DIN_
  6
Continuous
 62
     7
100
AcDbPolyline
 90
        2
 70
     0
 43
0.5
 10
89.4583467842358
 20
82.6603503967691
 10
83.45862448489589
 20
79.1989721471499
  0
LWPOLYLINE
  5
2E9
330
1F
100
AcDbEntity
  8
Sichtbare_Kanten_TC_020513_DIN_
  6
Continuous
 62
     7
100
AcDbPolyline
 90
        2
 70
     0
 43
0.5
 10
95.4580690835756
 20
79.1989721471499
 10
89.4583467842358
 20
82.6603503967691
  0
LWPOLYLINE
  5
2EA
330
1F
100
AcDbEntity
  8
Sichtbare_Kanten_TC_020513_DIN_
  6
Continuous
 62
     7
100
AcDbPolyline
 90
        2
 70
     0
 43
0.5
 10
89.4583467842358
 20
75.7375938975307
 10
95.4580690835756
 20
79.1989721471499
  0
LWPOLYLINE
  5
2EB
330
1F
100
AcDbEntity
  8
Sichtbare_Kanten_TC_020513_DIN_
  6
Continuous
 62
     7
100
AcDbPolyline
 90
        2
 70
     0
 43
0.5
 10
83.45862448489589
 20
79.1989721471499
 10
89.4583467842358
 20
75.7375938975307
  0
LWPOLYLINE
  5
2EC
330
1F
100
AcDbEntity
  8
Sichtbare_Kanten_TC_020513_DIN_
  6
Continuous
 62
     7
100
AcDbPolyline
 90
        2
 70
     0
 43
0.5
 10
86.65834678423579
 20
80.323491511392
 10
86.65834678423579
 20
78.07445278290783
  0
LWPOLYLINE
  5
2ED
330
1F
100
AcDbEntity
  8
Sichtbare_Kanten_TC_020513_DIN_
  6
Continuous
 62
     7
100
AcDbPolyline
 90
        2
 70
     0
 43
0.5
 10
86.15834678423579
 20
78.07445278290783
 10
86.15834678423579
 20
80.323491511392
  0
LWPOLYLINE
  5
2EE
330
1F
100
AcDbEntity
  8
Sichtbare_Kanten_TC_020513_DIN_
  6
Continuous
 62
     7
100
AcDbPolyline
 90
        2
 70
     0
 43
0.5
 10
91.58327739760819
 20
81.1458071386734
 10
92.58327739760819
 20
80.56888406175031
  0
LWPOLYLINE
  5
2EF
330
1F
100
AcDbEntity
  8
Sichtbare_Kanten_TC_020513_DIN_
  6
Continuous
 62
     7
100
AcDbPolyline
 90
        2
 70
     0
 43
0.5
 10
92.33341617086342
 20
80.13579126872602
 10
91.7083467842358
 20
80.4964082225496
  0
LWPOLYLINE
  5
2F0
330
1F
100
AcDbEntity
  8
Sichtbare_Kanten_TC_020513_DIN_
  6
Continuous
 62
     7
100
AcDbPolyline
 90
        2
 70
     0
 43
0.5
 10
91.7083467842358
 20
80.4964082225496
 10
91.7083467842358
 20
79.4489721471499
  0
LWPOLYLINE
  5
2F1
330
1F
100
AcDbEntity
  8
Sichtbare_Kanten_TC_020513_DIN_
  6
Continuous
 62
     7
100
AcDbPolyline
 90
        2
 70
     0
 43
0.5
 10
91.7083467842358
 20
79.4489721471499
 10
92.4583467842358
 20
79.4489721471499
  0
LWPOLYLINE
  5
2F2
330
1F
100
AcDbEntity
  8
Sichtbare_Kanten_TC_020513_DIN_
  6
Continuous
 62
     7
100
AcDbPolyline
 90
        2
 70
     0
 43
0.5
 10
92.4583467842358
 20
78.9489721471499
 10
91.7083467842358
 20
78.9489721471499
  0
LWPOLYLINE
  5
2F3
330
1F
100
AcDbEntity
  8
Sichtbare_Kanten_TC_020513_DIN_
  6
Continuous
 62
     7
100
AcDbPolyline
 90
        2
 70
     0
 43
0.5
 10
91.7083467842358
 20
78.9489721471499
 10
91.7083467842358
 20
77.9015360717502
  0
LWPOLYLINE
  5
2F4
330
1F
100
AcDbEntity
  8
Sichtbare_Kanten_TC_020513_DIN_
  6
Continuous
 62
     7
100
AcDbPolyline
 90
        2
 70
     0
 43
0.5
 10
91.7083467842358
 20
77.9015360717502
 10
92.33341617086342
 20
78.26215302557381
  0
LWPOLYLINE
  5
2F5
330
1F
100
AcDbEntity
  8
Sichtbare_Kanten_TC_020513_DIN_
  6
Continuous
 62
     7
100
AcDbPolyline
 90
        2
 70
     0
 43
0.5
 10
92.58327739760819
 20
77.82906023254952
 10
91.58327739760807
 20
77.2521371556264
  0
LWPOLYLINE
  5
2F6
330
1F
100
AcDbEntity
  8
Sichtbare_Kanten_TC_020513_DIN_
  6
Continuous
 62
     7
100
AcDbPolyline
 90
        2
 70
     0
 43
0.5
 10
91.2083467842358
 20
77.4686835521386
 10
91.2083467842358
 20
80.9292607421612
  0
LWPOLYLINE
  5
2F7
330
1F
100
AcDbEntity
  8
Sichtbare_Kanten_TC_020513_DIN_
  6
Continuous
 62
     7
100
AcDbPolyline
 90
        2
 70
     0
 43
0.5
 10
71.4583467842358
 20
167.6989721471496
 10
71.4583467842358
 20
148.6989721471496
  0
LWPOLYLINE
  5
2F8
330
1F
100
AcDbEntity
  8
Sichtbare_Kanten_TC_020513_DIN_
  6
Continuous
 62
     7
100
AcDbPolyline
 90
        2
 70
     0
 43
0.5
 10
107.458346784236
 20
167.6989721471496
 10
107.458346784236
 20
148.6989721471496
  0
LWPOLYLINE
  5
2F9
330
1F
100
AcDbEntity
  8
Sichtbare_Kanten_TC_020513_DIN_
  6
Continuous
 62
     7
100
AcDbPolyline
 90
        2
 70
     0
 43
0.5
 10
71.4583467842358
 20
167.6989721471496
 10
107.458346784236
 20
167.6989721471496
  0
LWPOLYLINE
  5
2FA
330
1F
100
AcDbEntity
  8
Sichtbare_Kanten_TC_020513_DIN_
  6
Continuous
 62
     7
100
AcDbPolyline
 90
        2
 70
     0
 43
0.5
 10
137.333346784236
 20
148.6989721471496
 10
139.094497249177
 20
148.6989721471496
  0
LWPOLYLINE
  5
2FB
330
1F
100
AcDbEntity
  8
Sichtbare_Kanten_TC_020513_DIN_
  6
Continuous
 62
     7
100
AcDbPolyline
 90
        2
 70
     0
 43
0.5
 10
136.04821741352
 20
148.6989721471496
 10
137.333346784236
 20
148.6989721471496
  0
LWPOLYLINE
  5
2FC
330
1F
100
AcDbEntity
  8
Stich_1-Linien_TC_020513_DIN_
  6
DASHED_SPACE
 62
     7
100
AcDbPolyline
 90
        2
 70
     0
 43
0.25
 10
266.1966161765751
 20
41.09642279685912
 42
0.17224189757279
 10
277.9485559923311
 20
74.1989721471499
 42
0.17224189757279
  0
LWPOLYLINE
  5
2FD
330
1F
100
AcDbEntity
  8
Sichtbare_Kanten_TC_020513_DIN_
  6
Continuous
 62
     7
100
AcDbPolyline
 90
        2
 70
     0
 43
0.5
 10
204.524622135492
 20
85.02219545185332
 42
0.41421356237338
 10
204.524622135493
 20
85.37574884244663
 42
0.41421356237338
  0
LWPOLYLINE
  5
2FE
330
1F
100
AcDbEntity
  8
Sichtbare_Kanten_TC_020513_DIN_
  6
Continuous
 62
     7
100
AcDbPolyline
 90
        2
 70
     0
 43
0.5
 10
203.951398830789
 20
91.0318148596246
 42
0.19891236737971
 10
204.009977474552
 20
90.89039350338763
 42
0.19891236737971
  0
LWPOLYLINE
  5
2FF
330
1F
100
AcDbEntity
  8
Sichtbare_Kanten_TC_020513_DIN_
  6
Continuous
 62
     7
100
AcDbPolyline
 90
        2
 70
     0
 43
0.5
 10
204.009977474552
 20
89.5075507909126
 42
0.19891236737971
 10
203.951398830789
 20
89.36612943467563
 42
0.19891236737971
  0
LWPOLYLINE
  5
300
330
1F
100
AcDbEntity
  8
Sichtbare_Kanten_TC_020513_DIN_
  6
Continuous
 62
     7
100
AcDbPolyline
 90
        2
 70
     0
 43
0.5
 10
203.951398830789
 20
88.5318148596246
 42
0.19891236737971
 10
204.009977474552
 20
88.39039350338763
 42
0.19891236737971
  0
LWPOLYLINE
  5
301
330
1F
100
AcDbEntity
  8
Sichtbare_Kanten_TC_020513_DIN_
  6
Continuous
 62
     7
100
AcDbPolyline
 90
        2
 70
     0
 43
0.5
 10
204.009977474552
 20
87.0075507909126
 42
0.19891236737971
 10
203.951398830789
 20
86.86612943467563
 42
0.19891236737971
  0
LWPOLYLINE
  5
302
330
1F
100
AcDbEntity
  8
Sichtbare_Kanten_TC_020513_DIN_
  6
Continuous
 62
     7
100
AcDbPolyline
 90
        2
 70
     0
 43
0.5
 10
203.951398830789
 20
86.0318148596246
 42
0.19891236738013
 10
204.009977474552
 20
85.8903935033872
 42
0.19891236738013
  0
LWPOLYLINE
  5
303
330
1F
100
AcDbEntity
  8
Sichtbare_Kanten_TC_020513_DIN_
  6
Continuous
 62
     7
100
AcDbPolyline
 90
        2
 70
     0
 43
0.5
 10
204.009977474552
 20
84.50755079091272
 42
0.19891236738002
 10
203.951398830789
 20
84.3661294346754
 42
0.19891236738002
  0
LWPOLYLINE
  5
304
330
1F
100
AcDbEntity
  8
Sichtbare_Kanten_TC_020513_DIN_
  6
Continuous
 62
     7
100
AcDbPolyline
 90
        2
 70
     0
 43
0.5
 10
204.524622135493
 20
87.5221954518536
 42
0.41421356237232
 10
204.524622135493
 20
87.87574884244663
 42
0.41421356237232
  0
LWPOLYLINE
  5
305
330
1F
100
AcDbEntity
  8
Sichtbare_Kanten_TC_020513_DIN_
  6
Continuous
 62
     7
100
AcDbPolyline
 90
        2
 70
     0
 43
0.5
 10
204.524622135492
 20
90.0221954518536
 42
0.41421356237314
 10
204.524622135493
 20
90.37574884244663
 42
0.41421356237314
  0
LWPOLYLINE
  5
306
330
1F
100
AcDbEntity
  8
Sichtbare_Kanten_TC_020513_DIN_
  6
Continuous
 62
     7
100
AcDbPolyline
 90
        2
 70
     0
 43
0.5
 10
204.524622135492
 20
92.5221954518536
 42
0.41421356237314
 10
204.524622135493
 20
92.87574884244663
 42
0.41421356237314
  0
LWPOLYLINE
  5
307
330
1F
100
AcDbEntity
  8
Sichtbare_Kanten_TC_020513_DIN_
  6
Continuous
 62
     7
100
AcDbPolyline
 90
        2
 70
     0
 43
0.5
 10
204.524622135492
 20
95.0221954518536
 42
0.41421356237314
 10
204.524622135493
 20
95.37574884244663
 42
0.41421356237314
  0
LWPOLYLINE
  5
308
330
1F
100
AcDbEntity
  8
Sichtbare_Kanten_TC_020513_DIN_
  6
Continuous
 62
     7
100
AcDbPolyline
 90
        2
 70
     0
 43
0.5
 10
204.524622135492
 20
97.5221954518536
 42
0.41421356237314
 10
204.524622135493
 20
97.87574884244663
 42
0.41421356237314
  0
LWPOLYLINE
  5
309
330
1F
100
AcDbEntity
  8
Sichtbare_Kanten_TC_020513_DIN_
  6
Continuous
 62
     7
100
AcDbPolyline
 90
        2
 70
     0
 43
0.5
 10
246.378175526086
 20
85.37574884244663
 42
0.4142135623742
 10
246.378175526086
 20
85.02219545185332
 42
0.4142135623742
  0
LWPOLYLINE
  5
30A
330
1F
100
AcDbEntity
  8
Sichtbare_Kanten_TC_020513_DIN_
  6
Continuous
 62
     7
100
AcDbPolyline
 90
        2
 70
     0
 43
0.5
 10
246.378175526086
 20
87.87574884244663
 42
0.41421356237397
 10
246.378175526086
 20
87.5221954518536
 42
0.41421356237397
  0
LWPOLYLINE
  5
30B
330
1F
100
AcDbEntity
  8
Sichtbare_Kanten_TC_020513_DIN_
  6
Continuous
 62
     7
100
AcDbPolyline
 90
        2
 70
     0
 43
0.5
 10
246.378175526086
 20
90.37574884244663
 42
0.41421356237397
 10
246.378175526086
 20
90.0221954518536
 42
0.41421356237397
  0
LWPOLYLINE
  5
30C
330
1F
100
AcDbEntity
  8
Sichtbare_Kanten_TC_020513_DIN_
  6
Continuous
 62
     7
100
AcDbPolyline
 90
        2
 70
     0
 43
0.5
 10
246.378175526086
 20
92.87574884244663
 42
0.41421356237397
 10
246.378175526086
 20
92.5221954518536
 42
0.41421356237397
  0
LWPOLYLINE
  5
30D
330
1F
100
AcDbEntity
  8
Sichtbare_Kanten_TC_020513_DIN_
  6
Continuous
 62
     7
100
AcDbPolyline
 90
        2
 70
     0
 43
0.5
 10
246.378175526086
 20
95.37574884244663
 42
0.41421356237397
 10
246.378175526086
 20
95.0221954518536
 42
0.41421356237397
  0
LWPOLYLINE
  5
30E
330
1F
100
AcDbEntity
  8
Sichtbare_Kanten_TC_020513_DIN_
  6
Continuous
 62
     7
100
AcDbPolyline
 90
        2
 70
     0
 43
0.5
 10
246.378175526086
 20
97.87574884244663
 42
0.41421356237397
 10
246.378175526086
 20
97.5221954518536
 42
0.41421356237397
  0
LWPOLYLINE
  5
30F
330
1F
100
AcDbEntity
  8
Sichtbare_Kanten_TC_020513_DIN_
  6
Continuous
 62
     7
100
AcDbPolyline
 90
        2
 70
     0
 43
0.5
 10
246.892820187026
 20
90.89039350338763
 42
0.19891236737974
 10
246.951398830789
 20
91.0318148596246
 42
0.19891236737974
  0
LWPOLYLINE
  5
310
330
1F
100
AcDbEntity
  8
Sichtbare_Kanten_TC_020513_DIN_
  6
Continuous
 62
     7
100
AcDbPolyline
 90
        2
 70
     0
 43
0.5
 10
246.951398830789
 20
89.36612943467563
 42
0.19891236737974
 10
246.892820187026
 20
89.5075507909126
 42
0.19891236737974
  0
LWPOLYLINE
  5
311
330
1F
100
AcDbEntity
  8
Sichtbare_Kanten_TC_020513_DIN_
  6
Continuous
 62
     7
100
AcDbPolyline
 90
        2
 70
     0
 43
0.5
 10
246.892820187026
 20
88.39039350338763
 42
0.19891236737974
 10
246.951398830789
 20
88.5318148596246
 42
0.19891236737974
  0
LWPOLYLINE
  5
312
330
1F
100
AcDbEntity
  8
Sichtbare_Kanten_TC_020513_DIN_
  6
Continuous
 62
     7
100
AcDbPolyline
 90
        2
 70
     0
 43
0.5
 10
246.951398830789
 20
86.86612943467563
 42
0.19891236737974
 10
246.892820187026
 20
87.0075507909126
 42
0.19891236737974
  0
LWPOLYLINE
  5
313
330
1F
100
AcDbEntity
  8
Sichtbare_Kanten_TC_020513_DIN_
  6
Continuous
 62
     7
100
AcDbPolyline
 90
        2
 70
     0
 43
0.5
 10
246.951398830789
 20
84.3661294346754
 42
0.19891236738005
 10
246.892820187026
 20
84.50755079091272
 42
0.19891236738005
  0
LWPOLYLINE
  5
314
330
1F
100
AcDbEntity
  8
Sichtbare_Kanten_TC_020513_DIN_
  6
Continuous
 62
     7
100
AcDbPolyline
 90
        2
 70
     0
 43
0.5
 10
246.892820187026
 20
85.89039350338732
 42
0.19891236738002
 10
246.951398830789
 20
86.0318148596246
 42
0.19891236738002
  0
LWPOLYLINE
  5
315
330
1F
100
AcDbEntity
  8
Sichtbare_Kanten_TC_020513_DIN_
  6
Continuous
 62
     7
100
AcDbPolyline
 90
        2
 70
     0
 43
0.5
 10
206.9513988307909
 20
148.6989721471496
 42
0.4142135623731
 10
203.9513988307909
 20
145.6989721471496
 42
0.4142135623731
  0
LWPOLYLINE
  5
316
330
1F
100
AcDbEntity
  8
Sichtbare_Kanten_TC_020513_DIN_
  6
Continuous
 62
     7
100
AcDbPolyline
 90
        2
 70
     0
 43
0.5
 10
246.9513988307909
 20
145.6989721471496
 42
0.4142135623731
 10
243.9513988307909
 20
148.6989721471496
 42
0.4142135623731
  0
LWPOLYLINE
  5
317
330
1F
100
AcDbEntity
  8
Sichtbare_Kanten_TC_020513_DIN_
  6
Continuous
 62
     7
100
AcDbPolyline
 90
        2
 70
     0
 43
0.5
 10
225.4513988307859
 20
45.94897214714992
 42
0.91477880409221
 10
228.282979773501
 20
77.69642112674182
 42
0.91477880409221
  0
LWPOLYLINE
  5
318
330
1F
100
AcDbEntity
  8
Sichtbare_Kanten_TC_020513_DIN_
  6
Continuous
 62
     7
100
AcDbPolyline
 90
        2
 70
     0
 43
0.5
 10
213.7445460389071
 20
56.09491123344441
 42
0.37303332625225
 10
225.4513988307859
 20
45.94897214714992
 42
0.37303332625225
  0
LWPOLYLINE
  5
319
330
1F
100
AcDbEntity
  8
Sichtbare_Kanten_TC_020513_DIN_
  6
Continuous
 62
     7
100
AcDbPolyline
 90
        2
 70
     0
 43
0.5
 10
221.15868401951
 20
53.91045610484532
 42
1.55730089701022
 10
213.7445460389071
 20
56.09491123344441
 42
1.55730089701022
  0
LWPOLYLINE
  5
31A
330
1F
100
AcDbEntity
  8
Sichtbare_Kanten_TC_020513_DIN_
  6
Continuous
 62
     7
100
AcDbPolyline
 90
        2
 70
     0
 43
0.5
 10
221.15868401951
 20
53.91045610484532
 42
0.25285291921542
 10
220.6392459008511
 20
51.59133295394711
 42
0.25285291921542
  0
LWPOLYLINE
  5
31B
330
1F
100
AcDbEntity
  8
Sichtbare_Kanten_TC_020513_DIN_
  6
Continuous
 62
     7
100
AcDbPolyline
 90
        2
 70
     0
 43
0.5
 10
220.6392459008511
 20
51.59133295394711
 42
0.33578345721092
 10
225.4513988307859
 20
47.94897214714992
 42
0.33578345721092
  0
LWPOLYLINE
  5
31C
330
1F
100
AcDbEntity
  8
Sichtbare_Kanten_TC_020513_DIN_
  6
Continuous
 62
     7
100
AcDbPolyline
 90
        2
 70
     0
 43
0.5
 10
225.4513988307859
 20
47.94897214714992
 42
0.43839485340412
 10
239.4045304081041
 20
63.09357652685481
 42
0.43839485340412
  0
LWPOLYLINE
  5
31D
330
1F
100
AcDbEntity
  8
Sichtbare_Kanten_TC_020513_DIN_
  6
Continuous
 62
     7
100
AcDbPolyline
 90
        2
 70
     0
 43
0.5
 10
239.4045304081041
 20
63.09357652685481
 42
0.33653733956718
 10
236.578703947435
 20
66.24416101580772
 42
0.33653733956718
  0
LWPOLYLINE
  5
31E
330
1F
100
AcDbEntity
  8
Sichtbare_Kanten_TC_020513_DIN_
  6
Continuous
 62
     7
100
AcDbPolyline
 90
        2
 70
     0
 43
0.5
 10
234.586853871378
 20
69.11563881381662
 42
0.40750055848263
 10
236.578703947435
 20
66.24416101580772
 42
0.40750055848263
  0
LWPOLYLINE
  5
31F
330
1F
100
AcDbEntity
  8
Sichtbare_Kanten_TC_020513_DIN_
  6
Continuous
 62
     7
100
AcDbPolyline
 90
        2
 70
     0
 43
0.5
 10
234.586853871378
 20
69.11563881381662
 42
0.59280695131708
 10
229.7657207132351
 20
72.91966503210091
 42
0.59280695131708
  0
LWPOLYLINE
  5
320
330
1F
100
AcDbEntity
  8
Sichtbare_Kanten_TC_020513_DIN_
  6
Continuous
 62
     7
100
AcDbPolyline
 90
        2
 70
     0
 43
0.5
 10
220.578086166344
 20
51.86673522816302
 42
3.78829117418834
 10
215.149926367374
 20
51.96592323162582
 42
3.78829117418834
  0
LWPOLYLINE
  5
321
330
1F
100
AcDbEntity
  8
Sichtbare_Kanten_TC_020513_DIN_
  6
Continuous
 62
     7
100
AcDbPolyline
 90
        2
 70
     0
 43
0.5
 10
225.4513988307859
 20
57.19897214714991
 42
0.35291109184938
 10
227.894513698027
 20
59.16869887282082
 42
0.35291109184938
  0
LWPOLYLINE
  5
322
330
1F
100
AcDbEntity
  8
Sichtbare_Kanten_TC_020513_DIN_
  6
Continuous
 62
     7
100
AcDbPolyline
 90
        2
 70
     0
 43
0.5
 10
228.91726775113
 20
63.88080818255242
 42
0.25022378385999
 10
228.53136739117
 20
65.23996585922671
 42
0.25022378385999
  0
LWPOLYLINE
  5
323
330
1F
100
AcDbEntity
  8
Sichtbare_Kanten_TC_020513_DIN_
  6
Continuous
 62
     7
100
AcDbPolyline
 90
        2
 70
     0
 43
0.5
 10
241.429316216694
 20
71.11430636049653
 42
0.17729112520573
 10
238.8350756220131
 20
73.36999956137453
 42
0.17729112520573
  0
LWPOLYLINE
  5
324
330
1F
100
AcDbEntity
  8
Sichtbare_Kanten_TC_020513_DIN_
  6
Continuous
 62
     7
100
AcDbPolyline
 90
        2
 70
     0
 43
0.5
 10
268.023766426933
 20
44.34359483901781
 42
0.41421356237314
 10
269.182222357613
 20
45.15475441436301
 42
0.41421356237314
  0
LWPOLYLINE
  5
325
330
1F
100
AcDbEntity
  8
Sichtbare_Kanten_TC_020513_DIN_
  6
Continuous
 62
     7
100
AcDbPolyline
 90
        2
 70
     0
 43
0.5
 10
269.5295187129469
 20
47.12436992038752
 42
0.3907239500452
 10
268.797335746244
 20
48.26558242012411
 42
0.3907239500452
  0
LWPOLYLINE
  5
326
330
1F
100
AcDbEntity
  8
Sichtbare_Kanten_TC_020513_DIN_
  6
Continuous
 62
     7
100
AcDbPolyline
 90
        2
 70
     0
 43
0.5
 10
257.50139883079
 20
52.77797748822481
 42
0.36397023426619
 10
259.9804542977901
 20
49.82355422918821
 42
0.36397023426619
  0
LWPOLYLINE
  5
327
330
1F
100
AcDbEntity
  8
Sichtbare_Kanten_TC_020513_DIN_
  6
Continuous
 62
     7
100
AcDbPolyline
 90
        2
 70
     0
 43
0.5
 10
148.885123479532
 20
85.37574884244651
 42
0.41421356237246
 10
148.885123479532
 20
85.02219545185332
 42
0.41421356237246
  0
LWPOLYLINE
  5
328
330
1F
100
AcDbEntity
  8
Sichtbare_Kanten_TC_020513_DIN_
  6
Continuous
 62
     7
100
AcDbPolyline
 90
        2
 70
     0
 43
0.5
 10
30.03157008893908
 20
87.5221954518536
 42
0.41421356237301
 10
30.03157008893908
 20
87.87574884244663
 42
0.41421356237301
  0
LWPOLYLINE
  5
329
330
1F
100
AcDbEntity
  8
Sichtbare_Kanten_TC_020513_DIN_
  6
Continuous
 62
     7
100
AcDbPolyline
 90
        2
 70
     0
 43
0.5
 10
30.03157008893908
 20
90.0221954518536
 42
0.41421356237301
 10
30.03157008893908
 20
90.37574884244663
 42
0.41421356237301
  0
LWPOLYLINE
  5
32A
330
1F
100
AcDbEntity
  8
Sichtbare_Kanten_TC_020513_DIN_
  6
Continuous
 62
     7
100
AcDbPolyline
 90
        2
 70
     0
 43
0.5
 10
148.885123479532
 20
92.87574884244663
 42
0.41421356237232
 10
148.885123479532
 20
92.5221954518536
 42
0.41421356237232
  0
LWPOLYLINE
  5
32B
330
1F
100
AcDbEntity
  8
Sichtbare_Kanten_TC_020513_DIN_
  6
Continuous
 62
     7
100
AcDbPolyline
 90
        2
 70
     0
 43
0.5
 10
30.03157008893908
 20
92.5221954518536
 42
0.41421356237301
 10
30.03157008893908
 20
92.87574884244663
 42
0.41421356237301
  0
LWPOLYLINE
  5
32C
330
1F
100
AcDbEntity
  8
Sichtbare_Kanten_TC_020513_DIN_
  6
Continuous
 62
     7
100
AcDbPolyline
 90
        2
 70
     0
 43
0.5
 10
148.885123479532
 20
95.37574884244663
 42
0.41421356237232
 10
148.885123479532
 20
95.0221954518536
 42
0.41421356237232
  0
LWPOLYLINE
  5
32D
330
1F
100
AcDbEntity
  8
Sichtbare_Kanten_TC_020513_DIN_
  6
Continuous
 62
     7
100
AcDbPolyline
 90
        2
 70
     0
 43
0.5
 10
30.03157008893908
 20
95.0221954518536
 42
0.41421356237301
 10
30.03157008893908
 20
95.37574884244663
 42
0.41421356237301
  0
LWPOLYLINE
  5
32E
330
1F
100
AcDbEntity
  8
Sichtbare_Kanten_TC_020513_DIN_
  6
Continuous
 62
     7
100
AcDbPolyline
 90
        2
 70
     0
 43
0.5
 10
148.885123479532
 20
97.87574884244663
 42
0.41421356237232
 10
148.885123479532
 20
97.5221954518536
 42
0.41421356237232
  0
LWPOLYLINE
  5
32F
330
1F
100
AcDbEntity
  8
Sichtbare_Kanten_TC_020513_DIN_
  6
Continuous
 62
     7
100
AcDbPolyline
 90
        2
 70
     0
 43
0.5
 10
30.03157008893908
 20
97.5221954518536
 42
0.41421356237301
 10
30.03157008893908
 20
97.87574884244663
 42
0.41421356237301
  0
LWPOLYLINE
  5
330
330
1F
100
AcDbEntity
  8
Sichtbare_Kanten_TC_020513_DIN_
  6
Continuous
 62
     7
100
AcDbPolyline
 90
        2
 70
     0
 43
0.5
 10
148.885123479532
 20
90.37574884244663
 42
0.41421356237232
 10
148.885123479532
 20
90.0221954518536
 42
0.41421356237232
  0
LWPOLYLINE
  5
331
330
1F
100
AcDbEntity
  8
Sichtbare_Kanten_TC_020513_DIN_
  6
Continuous
 62
     7
100
AcDbPolyline
 90
        2
 70
     0
 43
0.5
 10
149.399768140473
 20
90.89039350338763
 42
0.19891236737966
 10
149.458346784236
 20
91.0318148596246
 42
0.19891236737966
  0
LWPOLYLINE
  5
332
330
1F
100
AcDbEntity
  8
Sichtbare_Kanten_TC_020513_DIN_
  6
Continuous
 62
     7
100
AcDbPolyline
 90
        2
 70
     0
 43
0.5
 10
29.4583467842358
 20
91.0318148596246
 42
0.19891236737947
 10
29.5169254279985
 20
90.89039350338763
 42
0.19891236737947
  0
LWPOLYLINE
  5
333
330
1F
100
AcDbEntity
  8
Sichtbare_Kanten_TC_020513_DIN_
  6
Continuous
 62
     7
100
AcDbPolyline
 90
        2
 70
     0
 43
0.5
 10
149.458346784236
 20
89.36612943467563
 42
0.19891236737966
 10
149.399768140473
 20
89.5075507909126
 42
0.19891236737966
  0
LWPOLYLINE
  5
334
330
1F
100
AcDbEntity
  8
Sichtbare_Kanten_TC_020513_DIN_
  6
Continuous
 62
     7
100
AcDbPolyline
 90
        2
 70
     0
 43
0.5
 10
29.51692542799839
 20
89.5075507909126
 42
0.19891236737937
 10
29.4583467842358
 20
89.36612943467563
 42
0.19891236737937
  0
LWPOLYLINE
  5
335
330
1F
100
AcDbEntity
  8
Sichtbare_Kanten_TC_020513_DIN_
  6
Continuous
 62
     7
100
AcDbPolyline
 90
        2
 70
     0
 43
0.5
 10
148.885123479532
 20
87.87574884244663
 42
0.41421356237232
 10
148.885123479532
 20
87.5221954518536
 42
0.41421356237232
  0
LWPOLYLINE
  5
336
330
1F
100
AcDbEntity
  8
Sichtbare_Kanten_TC_020513_DIN_
  6
Continuous
 62
     7
100
AcDbPolyline
 90
        2
 70
     0
 43
0.5
 10
29.4583467842358
 20
88.5318148596246
 42
0.19891236737937
 10
29.5169254279985
 20
88.39039350338763
 42
0.19891236737937
  0
LWPOLYLINE
  5
337
330
1F
100
AcDbEntity
  8
Sichtbare_Kanten_TC_020513_DIN_
  6
Continuous
 62
     7
100
AcDbPolyline
 90
        2
 70
     0
 43
0.5
 10
149.399768140473
 20
88.39039350338763
 42
0.19891236737966
 10
149.458346784236
 20
88.5318148596246
 42
0.19891236737966
  0
LWPOLYLINE
  5
338
330
1F
100
AcDbEntity
  8
Sichtbare_Kanten_TC_020513_DIN_
  6
Continuous
 62
     7
100
AcDbPolyline
 90
        2
 70
     0
 43
0.5
 10
149.458346784236
 20
86.86612943467563
 42
0.19891236737966
 10
149.399768140473
 20
87.0075507909126
 42
0.19891236737966
  0
LWPOLYLINE
  5
339
330
1F
100
AcDbEntity
  8
Sichtbare_Kanten_TC_020513_DIN_
  6
Continuous
 62
     7
100
AcDbPolyline
 90
        2
 70
     0
 43
0.5
 10
29.51692542799839
 20
87.0075507909126
 42
0.19891236737937
 10
29.4583467842358
 20
86.86612943467563
 42
0.19891236737937
  0
LWPOLYLINE
  5
33A
330
1F
100
AcDbEntity
  8
Sichtbare_Kanten_TC_020513_DIN_
  6
Continuous
 62
     7
100
AcDbPolyline
 90
        2
 70
     0
 43
0.5
 10
30.03157008893908
 20
85.02219545185332
 42
0.41421356237315
 10
30.03157008893908
 20
85.37574884244651
 42
0.41421356237315
  0
LWPOLYLINE
  5
33B
330
1F
100
AcDbEntity
  8
Sichtbare_Kanten_TC_020513_DIN_
  6
Continuous
 62
     7
100
AcDbPolyline
 90
        2
 70
     0
 43
0.5
 10
149.458346784236
 20
84.36612943467532
 42
0.19891236737995
 10
149.399768140473
 20
84.5075507909126
 42
0.19891236737995
  0
LWPOLYLINE
  5
33C
330
1F
100
AcDbEntity
  8
Sichtbare_Kanten_TC_020513_DIN_
  6
Continuous
 62
     7
100
AcDbPolyline
 90
        2
 70
     0
 43
0.5
 10
29.5169254279985
 20
84.5075507909126
 42
0.19891236737976
 10
29.4583467842358
 20
84.36612943467532
 42
0.19891236737976
  0
LWPOLYLINE
  5
33D
330
1F
100
AcDbEntity
  8
Sichtbare_Kanten_TC_020513_DIN_
  6
Continuous
 62
     7
100
AcDbPolyline
 90
        2
 70
     0
 43
0.5
 10
149.399768140473
 20
85.8903935033872
 42
0.19891236737997
 10
149.458346784236
 20
86.03181485962452
 42
0.19891236737997
  0
LWPOLYLINE
  5
33E
330
1F
100
AcDbEntity
  8
Sichtbare_Kanten_TC_020513_DIN_
  6
Continuous
 62
     7
100
AcDbPolyline
 90
        2
 70
     0
 43
0.5
 10
29.4583467842358
 20
86.03181485962452
 42
0.19891236737968
 10
29.51692542799839
 20
85.8903935033872
 42
0.19891236737968
  0
LWPOLYLINE
  5
33F
330
1F
100
AcDbEntity
  8
Sichtbare_Kanten_TC_020513_DIN_
  6
Continuous
 62
     7
100
AcDbPolyline
 90
        2
 70
     0
 43
0.5
 10
142.048920508214
 20
146.2199166801506
 42
0.36397023426619
 10
139.094497249177
 20
148.6989721471496
 42
0.36397023426619
  0
LWPOLYLINE
  5
340
330
1F
100
AcDbEntity
  8
Sichtbare_Kanten_TC_020513_DIN_
  6
Continuous
 62
     7
100
AcDbPolyline
 90
        2
 70
     0
 43
0.5
 10
39.82219631929428
 20
148.6989721471496
 42
0.36397023426618
 10
36.86777306025772
 20
146.2199166801506
 42
0.36397023426618
  0
LWPOLYLINE
  5
341
330
1F
100
AcDbEntity
  8
Sichtbare_Kanten_TC_020513_DIN_
  6
Continuous
 62
     7
100
AcDbPolyline
 90
        2
 70
     0
 43
0.5
 10
98.73196527973153
 20
141.1989721471496
 42
0.03140196774236
 10
96.09159636494667
 20
142.1989721471506
 42
0.03140196774236
  0
LWPOLYLINE
  5
342
330
1F
100
AcDbEntity
  8
Sichtbare_Kanten_TC_020513_DIN_
  6
Continuous
 62
     7
100
AcDbPolyline
 90
        2
 70
     0
 43
0.5
 10
82.82509720352493
 20
142.1989721471496
 42
0.03140196774236
 10
80.18472828874002
 20
141.1989721471496
 42
0.03140196774236
  0
LWPOLYLINE
  5
343
330
1F
100
AcDbEntity
  8
Sichtbare_Kanten_TC_020513_DIN_
  6
Continuous
 62
     7
100
AcDbPolyline
 90
        2
 70
     0
 43
0.5
 10
155.958346784236
 20
69.9489721471499
 42
0.4142135623731
 10
156.208346784236
 20
69.6989721471499
 42
0.4142135623731
  0
LWPOLYLINE
  5
344
330
1F
100
AcDbEntity
  8
Sichtbare_Kanten_TC_020513_DIN_
  6
Continuous
 62
     7
100
AcDbPolyline
 90
        2
 70
     0
 43
0.5
 10
156.208346784236
 20
78.6989721471499
 42
0.4142135623731
 10
155.958346784236
 20
78.4489721471499
 42
0.4142135623731
  0
LWPOLYLINE
  5
345
330
1F
100
AcDbEntity
  8
Sichtbare_Kanten_TC_020513_DIN_
  6
Continuous
 62
     7
100
AcDbPolyline
 90
        2
 70
     0
 43
0.5
 10
157.208346784236
 20
69.6989721471499
 42
0.4142135623731
 10
157.458346784236
 20
69.9489721471499
 42
0.4142135623731
  0
LWPOLYLINE
  5
346
330
1F
100
AcDbEntity
  8
Sichtbare_Kanten_TC_020513_DIN_
  6
Continuous
 62
     7
100
AcDbPolyline
 90
        2
 70
     0
 43
0.5
 10
157.458346784236
 20
78.4489721471499
 42
0.4142135623731
 10
157.208346784236
 20
78.6989721471499
 42
0.4142135623731
  0
LWPOLYLINE
  5
347
330
1F
100
AcDbEntity
  8
Sichtbare_Kanten_TC_020513_DIN_
  6
Continuous
 62
     7
100
AcDbPolyline
 90
        2
 70
     0
 43
0.5
 10
150.458346784236
 20
69.9489721471499
 42
0.4142135623731
 10
150.258346784236
 20
69.74897214714991
 42
0.4142135623731
  0
LWPOLYLINE
  5
348
330
1F
100
AcDbEntity
  8
Sichtbare_Kanten_TC_020513_DIN_
  6
Continuous
 62
     7
100
AcDbPolyline
 90
        2
 70
     0
 43
0.5
 10
150.258346784236
 20
67.64897214714992
 42
0.4142135623731
 10
150.458346784236
 20
67.4489721471499
 42
0.4142135623731
  0
LWPOLYLINE
  5
349
330
1F
100
AcDbEntity
  8
Sichtbare_Kanten_TC_020513_DIN_
  6
Continuous
 62
     7
100
AcDbPolyline
 90
        2
 70
     0
 43
0.5
 10
155.658346784236
 20
69.74897214714991
 42
0.4142135623731
 10
155.458346784236
 20
69.9489721471499
 42
0.4142135623731
  0
LWPOLYLINE
  5
34A
330
1F
100
AcDbEntity
  8
Sichtbare_Kanten_TC_020513_DIN_
  6
Continuous
 62
     7
100
AcDbPolyline
 90
        2
 70
     0
 43
0.5
 10
155.458346784236
 20
67.4489721471499
 42
0.4142135623731
 10
155.658346784236
 20
67.64897214714992
 42
0.4142135623731
  0
LWPOLYLINE
  5
34B
330
1F
100
AcDbEntity
  8
Sichtbare_Kanten_TC_020513_DIN_
  6
Continuous
 62
     7
100
AcDbPolyline
 90
        2
 70
     0
 43
0.5
 10
22.9583467842358
 20
78.4489721471499
 42
0.4142135623731
 10
22.7083467842358
 20
78.6989721471499
 42
0.4142135623731
  0
LWPOLYLINE
  5
34C
330
1F
100
AcDbEntity
  8
Sichtbare_Kanten_TC_020513_DIN_
  6
Continuous
 62
     7
100
AcDbPolyline
 90
        2
 70
     0
 43
0.5
 10
22.7083467842358
 20
69.6989721471499
 42
0.4142135623731
 10
22.9583467842358
 20
69.9489721471499
 42
0.4142135623731
  0
LWPOLYLINE
  5
34D
330
1F
100
AcDbEntity
  8
Sichtbare_Kanten_TC_020513_DIN_
  6
Continuous
 62
     7
100
AcDbPolyline
 90
        2
 70
     0
 43
0.5
 10
21.7083467842358
 20
78.6989721471499
 42
0.4142135623731
 10
21.4583467842358
 20
78.4489721471499
 42
0.4142135623731
  0
LWPOLYLINE
  5
34E
330
1F
100
AcDbEntity
  8
Sichtbare_Kanten_TC_020513_DIN_
  6
Continuous
 62
     7
100
AcDbPolyline
 90
        2
 70
     0
 43
0.5
 10
21.4583467842358
 20
69.9489721471499
 42
0.4142135623731
 10
21.7083467842358
 20
69.6989721471499
 42
0.4142135623731
  0
LWPOLYLINE
  5
34F
330
1F
100
AcDbEntity
  8
Sichtbare_Kanten_TC_020513_DIN_
  6
Continuous
 62
     7
100
AcDbPolyline
 90
        2
 70
     0
 43
0.5
 10
28.45834678423569
 20
67.4489721471499
 42
0.41421356237326
 10
28.65834678423579
 20
67.64897214714992
 42
0.41421356237326
  0
LWPOLYLINE
  5
350
330
1F
100
AcDbEntity
  8
Sichtbare_Kanten_TC_020513_DIN_
  6
Continuous
 62
     7
100
AcDbPolyline
 90
        2
 70
     0
 43
0.5
 10
28.65834678423579
 20
69.74897214714991
 42
0.41421356237326
 10
28.45834678423569
 20
69.9489721471499
 42
0.41421356237326
  0
LWPOLYLINE
  5
351
330
1F
100
AcDbEntity
  8
Sichtbare_Kanten_TC_020513_DIN_
  6
Continuous
 62
     7
100
AcDbPolyline
 90
        2
 70
     0
 43
0.5
 10
23.25834678423581
 20
67.64897214714992
 42
0.4142135623731
 10
23.4583467842358
 20
67.4489721471499
 42
0.4142135623731
  0
LWPOLYLINE
  5
352
330
1F
100
AcDbEntity
  8
Sichtbare_Kanten_TC_020513_DIN_
  6
Continuous
 62
     7
100
AcDbPolyline
 90
        2
 70
     0
 43
0.5
 10
23.4583467842358
 20
69.9489721471499
 42
0.4142135623731
 10
23.25834678423581
 20
69.74897214714991
 42
0.4142135623731
  0
LWPOLYLINE
  5
353
330
1F
100
AcDbEntity
  8
Sichtbare_Kanten_TC_020513_DIN_
  6
Continuous
 62
     7
100
AcDbPolyline
 90
        2
 70
     0
 43
0.5
 10
88.2083467842358
 20
78.07445278290783
 42
1.0
 10
88.7083467842358
 20
78.07445278290783
 42
1.0
  0
LWPOLYLINE
  5
354
330
1F
100
AcDbEntity
  8
Sichtbare_Kanten_TC_020513_DIN_
  6
Continuous
 62
     7
100
AcDbPolyline
 90
        2
 70
     0
 43
0.5
 10
88.66083269056281
 20
81.65281075296392
 42
0.7271455171377
 10
88.2083467842358
 20
81.50618381908433
 42
0.7271455171377
  0
LWPOLYLINE
  5
355
330
1F
100
AcDbEntity
  8
Sichtbare_Kanten_TC_020513_DIN_
  6
Continuous
 62
     7
100
AcDbPolyline
 90
        2
 70
     0
 43
0.5
 10
90.7083467842358
 20
81.50618381908433
 42
0.7271455171379
 10
90.25586087790873
 20
81.6528107529638
 42
0.7271455171379
  0
LWPOLYLINE
  5
356
330
1F
100
AcDbEntity
  8
Sichtbare_Kanten_TC_020513_DIN_
  6
Continuous
 62
     7
100
AcDbPolyline
 90
        2
 70
     0
 43
0.5
 10
90.20834678423569
 20
76.8917604752155
 42
1.0
 10
90.7083467842358
 20
76.8917604752155
 42
1.0
  0
LWPOLYLINE
  5
357
330
1F
100
AcDbEntity
  8
Sichtbare_Kanten_TC_020513_DIN_
  6
Continuous
 62
     7
100
AcDbPolyline
 90
        2
 70
     0
 43
0.5
 10
87.65834678423579
 20
80.9004145883151
 42
1.0
 10
87.15834678423579
 20
80.9004145883151
 42
1.0
  0
LWPOLYLINE
  5
358
330
1F
100
AcDbEntity
  8
Sichtbare_Kanten_TC_020513_DIN_
  6
Continuous
 62
     7
100
AcDbPolyline
 90
        2
 70
     0
 43
0.5
 10
89.33341617086342
 20
76.09829100178032
 42
1.00000000000011
 10
89.58327739760819
 20
76.53138379480461
 42
1.00000000000011
  0
LWPOLYLINE
  5
359
330
1F
100
AcDbEntity
  8
Sichtbare_Kanten_TC_020513_DIN_
  6
Continuous
 62
     7
100
AcDbPolyline
 90
        2
 70
     0
 43
0.5
 10
87.15834678423579
 20
77.4975297059847
 42
0.26803505952204
 10
87.2834161708634
 20
77.28098330947262
 42
0.26803505952204
  0
LWPOLYLINE
  5
35A
330
1F
100
AcDbEntity
  8
Sichtbare_Kanten_TC_020513_DIN_
  6
Continuous
 62
     7
100
AcDbPolyline
 90
        2
 70
     0
 43
0.5
 10
86.15834678423579
 20
78.07445278290783
 42
1.0
 10
86.65834678423579
 20
78.07445278290783
 42
1.0
  0
LWPOLYLINE
  5
35B
330
1F
100
AcDbEntity
  8
Sichtbare_Kanten_TC_020513_DIN_
  6
Continuous
 62
     7
100
AcDbPolyline
 90
        2
 70
     0
 43
0.5
 10
86.65834678423579
 20
80.323491511392
 42
1.0
 10
86.15834678423579
 20
80.323491511392
 42
1.0
  0
LWPOLYLINE
  5
35C
330
1F
100
AcDbEntity
  8
Sichtbare_Kanten_TC_020513_DIN_
  6
Continuous
 62
     7
100
AcDbPolyline
 90
        2
 70
     0
 43
0.5
 10
91.58327739760819
 20
81.1458071386734
 42
0.57724345630784
 10
91.2083467842358
 20
80.9292607421612
 42
0.57724345630784
  0
LWPOLYLINE
  5
35D
330
1F
100
AcDbEntity
  8
Sichtbare_Kanten_TC_020513_DIN_
  6
Continuous
 62
     7
100
AcDbPolyline
 90
        2
 70
     0
 43
0.5
 10
92.33341617086342
 20
80.13579126872602
 42
0.99999999999989
 10
92.58327739760819
 20
80.56888406175031
 42
0.99999999999989
  0
LWPOLYLINE
  5
35E
330
1F
100
AcDbEntity
  8
Sichtbare_Kanten_TC_020513_DIN_
  6
Continuous
 62
     7
100
AcDbPolyline
 90
        2
 70
     0
 43
0.5
 10
92.4583467842358
 20
78.9489721471499
 42
1.0
 10
92.4583467842358
 20
79.4489721471499
 42
1.0
  0
LWPOLYLINE
  5
35F
330
1F
100
AcDbEntity
  8
Sichtbare_Kanten_TC_020513_DIN_
  6
Continuous
 62
     7
100
AcDbPolyline
 90
        2
 70
     0
 43
0.5
 10
92.58327739760819
 20
77.82906023254952
 42
0.99999999999989
 10
92.33341617086342
 20
78.26215302557381
 42
0.99999999999989
  0
LWPOLYLINE
  5
360
330
1F
100
AcDbEntity
  8
Sichtbare_Kanten_TC_020513_DIN_
  6
Continuous
 62
     7
100
AcDbPolyline
 90
        2
 70
     0
 43
0.5
 10
91.2083467842358
 20
77.4686835521386
 42
0.57724345630771
 10
91.58327739760807
 20
77.2521371556264
 42
0.57724345630771
  0
LWPOLYLINE
  5
361
330
1F
100
AcDbEntity
  8
Sichtbare_Kanten_TC_020513_DIN_
  6
Continuous
 62
     7
100
AcDbPolyline
 90
        2
 70
     1
 43
0.5
 10
220.951398830785
 20
74.1989721471499
 42
1.0
 10
229.951398830785
 20
74.1989721471499
 42
1.0
  0
LWPOLYLINE
  5
362
330
1F
100
AcDbEntity
  8
Sichtbare_Kanten_TC_020513_DIN_
  6
Continuous
 62
     7
100
AcDbPolyline
 90
        2
 70
     1
 43
0.5
 10
216.7013988307859
 20
56.69897214714991
 42
1.0
 10
219.2013988307859
 20
56.69897214714991
 42
1.0
  0
LWPOLYLINE
  5
363
330
1F
100
AcDbEntity
  8
Sichtbare_Kanten_TC_020513_DIN_
  6
Continuous
 62
     7
100
AcDbPolyline
 90
        2
 70
     1
 43
0.5
 10
235.8013988307861
 20
68.69897214715002
 42
1.0
 10
238.3013988307861
 20
68.69897214715002
 42
1.0
  0
SPLINE
  5
364
330
1F
100
AcDbEntity
  8
Sichtbare_Kanten_TC_020513_DIN_
  6
Continuous
 62
     7
100
AcDbSpline
210
0.0
220
0.0
230
1.0
 70
     8
 71
     3
 72
    23
 73
    19
 74
    17
 42
0.000000001
 43
0.0000000001
 44
0.00000001
 40
0.0
 40
0.0
 40
0.0
 40
0.0
 40
0.2030000020415101
 40
0.4127586708905847
 40
0.63937505429386
 40
0.8624896970207644
 40
1.164021700322873
 40
1.467110027703409
 40
1.838597097762946
 40
2.209492032839753
 40
2.638558186196556
 40
3.067839169704037
 40
3.542238889373205
 40
4.016516659908749
 40
4.521645118237183
 40
5.02703480359386
 40
5.548477455097549
 40
6.068961410800616
 40
6.068961410800616
 40
6.068961410800616
 40
6.068961410800616
 10
246.951398830789
 20
103.6740401659946
 30
0.0
 10
246.9016253725696
 20
103.7224014507656
 30
0.0
 10
246.8004213114751
 20
103.8207341687773
 30
0.0
 10
246.5818687757271
 20
103.852417611411
 30
0.0
 10
246.369021398102
 20
103.8981481800783
 30
0.0
 10
246.1218482991723
 20
103.9423906632103
 30
0.0
 10
245.8486677198862
 20
103.9800885952528
 30
0.0
 10
245.5250258571544
 20
104.0143930448084
 30
0.0
 10
245.1780870447385
 20
104.0470717832239
 30
0.0
 10
244.7888536432217
 20
104.078519719307
 30
0.0
 10
244.3800060820119
 20
104.1058241488673
 30
0.0
 10
243.936413492916
 20
104.1301121102903
 30
0.0
 10
243.477556291554
 20
104.1508638388398
 30
0.0
 10
242.9932634353082
 20
104.1683358159519
 30
0.0
 10
242.4985130777563
 20
104.1819769574924
 30
0.0
 10
241.9879478140646
 20
104.1917228649458
 30
0.0
 10
241.4722028805227
 20
104.1976880935368
 30
0.0
 10
241.1248936588178
 20
104.1985443875149
 30
0.0
 10
240.9513988307871
 20
104.1989721471496
 30
0.0
 11
246.951398830789
 21
103.6740401659946
 31
0.0
 11
246.7924308450547
 21
103.8002866698718
 31
0.0
 11
246.5895545555046
 21
103.8535774774255
 31
0.0
 11
246.3671758766456
 21
103.8971975227804
 31
0.0
 11
246.1475512534958
 21
103.9365061565721
 31
0.0
 11
245.8489512903366
 21
103.978453873758
 31
0.0
 11
245.5476654895027
 21
104.0114599394096
 31
0.0
 11
245.1778129577905
 21
104.0462701098885
 31
0.0
 11
244.8081244889085
 21
104.0761613931744
 31
0.0
 11
244.3800261618736
 21
104.1049639333471
 31
0.0
 11
243.9513988307895
 21
104.128644596934
 31
0.0
 11
243.4774865332103
 21
104.1501440901332
 31
0.0
 11
243.0035196907435
 21
104.1673148751007
 31
0.0
 11
242.4985837920047
 21
104.1812611139352
 31
0.0
 11
241.9932878967907
 21
104.1909972508407
 31
0.0
 11
241.4718786580747
 21
104.1969001879435
 31
0.0
 11
240.9513988307871
 21
104.1989721471496
 31
0.0
  0
SPLINE
  5
365
330
1F
100
AcDbEntity
  8
Sichtbare_Kanten_TC_020513_DIN_
  6
Continuous
 62
     7
100
AcDbSpline
210
0.0
220
0.0
230
1.0
 70
     8
 71
     3
 72
    21
 73
    17
 74
    15
 42
0.000000001
 43
0.0000000001
 44
0.00000001
 40
0.0
 40
0.0
 40
0.0
 40
0.0
 40
1.026214188798656
 40
2.052428859684241
 40
2.526735186490291
 40
3.001106377378502
 40
3.430380843927464
 40
3.859453504384505
 40
4.230349822065317
 40
4.601835512295853
 40
4.904923573974194
 40
5.206455841434951
 40
5.42957052797114
 40
5.656186867748596
 40
5.8659455327885
 40
6.068945537802303
 40
6.068945537802303
 40
6.068945537802303
 40
6.068945537802303
 10
209.9513988307871
 20
104.1989721471496
 30
0.0
 10
209.6093247159533
 20
104.1975055550368
 30
0.0
 10
208.9251763254884
 20
104.1945723834554
 30
0.0
 10
208.0831083355563
 20
104.1745305888291
 30
0.0
 10
207.4252318589127
 20
104.1508800246834
 30
0.0
 10
206.9663768252926
 20
104.1301081021356
 30
0.0
 10
206.5227938294847
 20
104.1058239223285
 30
0.0
 10
206.1139457093123
 20
104.0785198390206
 30
0.0
 10
205.7247101323041
 20
104.0470720775531
 30
0.0
 10
205.3777714378832
 20
104.0143929595007
 30
0.0
 10
205.054130038445
 20
103.9800885393711
 30
0.0
 10
204.7809494341524
 20
103.9423906827132
 30
0.0
 10
204.5337762460706
 20
103.8981481930645
 30
0.0
 10
204.3209288728259
 20
103.8524176061461
 30
0.0
 10
204.102376352501
 20
103.8207341674396
 30
0.0
 10
204.0011722903553
 20
103.7224014508649
 30
0.0
 10
203.951398830789
 20
103.6740401659946
 30
0.0
 11
209.9513988307871
 21
104.1989721471496
 31
0.0
 11
208.9252138081197
 21
104.1912357577829
 31
0.0
 11
207.8992779708319
 21
104.1673148751006
 31
0.0
 11
207.4252824864652
 21
104.1501459367124
 31
0.0
 11
206.9513988307863
 21
104.1286445969336
 31
0.0
 11
206.5227780499275
 21
104.1049635110453
 31
0.0
 11
206.0946731726672
 21
104.0761613931738
 31
0.0
 11
205.7249833093985
 21
104.046270199786
 31
0.0
 11
205.355132172073
 21
104.0114599394092
 31
0.0
 11
205.0538466404312
 21
103.9784538564023
 31
0.0
 11
204.7552464080804
 21
103.9365061565719
 31
0.0
 11
204.5356217399047
 21
103.8971975256837
 31
0.0
 11
204.313243106072
 21
103.8535774774253
 31
0.0
 11
204.1103668205307
 21
103.8002866696126
 31
0.0
 11
203.951398830789
 21
103.6740401659946
 31
0.0
  0
SPLINE
  5
366
330
1F
100
AcDbEntity
  8
Sichtbare_Kanten_TC_020513_DIN_
  6
Continuous
 62
     7
100
AcDbSpline
210
0.0
220
0.0
230
1.0
 70
     8
 71
     3
 72
    11
 73
     7
 74
     5
 42
0.000000001
 43
0.0000000001
 44
0.00000001
 40
0.0
 40
0.0
 40
0.0
 40
0.0
 40
0.9931275063656347
 40
1.986341418923135
 40
2.692273398690546
 40
3.397622441800334
 40
3.397622441800334
 40
3.397622441800334
 40
3.397622441800334
 10
33.1529157756799
 20
109.6989721471496
 30
0.0
 10
33.43157667428859
 20
109.5180649295387
 30
0.0
 10
33.98892272362447
 20
109.1562347678175
 30
0.0
 10
34.8486994323608
 20
108.8710886041223
 30
0.0
 10
35.63814945355897
 20
108.7220112781879
 30
0.0
 10
36.10903323032402
 20
108.7066497375445
 30
0.0
 10
36.34437786873832
 20
108.6989721471496
 30
0.0
 11
33.1529157756799
 21
109.6989721471496
 31
0.0
 11
34.00814467295203
 21
109.1941100088702
 31
0.0
 11
34.94565222664747
 21
108.8661565570658
 31
0.0
 11
35.64022448021358
 21
108.7400242990353
 31
0.0
 11
36.34437786873832
 21
108.6989721471496
 31
0.0
  0
SPLINE
  5
367
330
1F
100
AcDbEntity
  8
Sichtbare_Kanten_TC_020513_DIN_
  6
Continuous
 62
     7
100
AcDbSpline
210
0.0
220
0.0
230
1.0
 70
     8
 71
     3
 72
    11
 73
     7
 74
     5
 42
0.000000001
 43
0.0000000001
 44
0.00000001
 40
0.0
 40
0.0
 40
0.0
 40
0.0
 40
1.092482417348529
 40
2.185039364445943
 40
2.954010843977525
 40
3.722480804037934
 40
3.722480804037934
 40
3.722480804037934
 40
3.722480804037934
 10
42.25133172247189
 20
142.1989721471496
 30
0.0
 10
41.88674369719146
 20
142.1804950786636
 30
0.0
 10
41.15754277576338
 20
142.1435396660511
 30
0.0
 10
40.20037346047821
 20
141.8871546079934
 30
0.0
 10
39.38193263685322
 20
141.5688971447897
 30
0.0
 10
38.93207240664341
 20
141.3222536653743
 30
0.0
 10
38.70721566799659
 20
141.1989721471496
 30
0.0
 11
42.25133172247189
 21
142.1989721471496
 31
0.0
 11
41.16286641922481
 21
142.1053713079851
 31
0.0
 11
40.10375068192114
 21
141.8371278718654
 31
0.0
 11
39.38892696737103
 21
141.5536773555663
 31
0.0
 11
38.70721566799659
 21
141.1989721471496
 31
0.0
  0
SPLINE
  5
368
330
1F
100
AcDbEntity
  8
Sichtbare_Kanten_TC_020513_DIN_
  6
Continuous
 62
     7
100
AcDbSpline
210
0.0
220
0.0
230
1.0
 70
     8
 71
     3
 72
    11
 73
     7
 74
     5
 42
0.000000001
 43
0.0000000001
 44
0.00000001
 40
0.0
 40
0.0
 40
0.0
 40
0.0
 40
1.030396265978642
 40
2.060716304926244
 40
2.729673963308364
 40
3.397793081185536
 40
3.397793081185536
 40
3.397793081185536
 40
3.397793081185536
 10
142.572315699733
 20
108.6989721471496
 30
0.0
 10
142.916338129879
 20
108.7153563634548
 30
0.0
 10
143.6043575383447
 20
108.7481235991447
 30
0.0
 10
144.4867287915761
 20
108.9996362598685
 30
0.0
 10
145.2093651388464
 20
109.3234379637171
 30
0.0
 10
145.5790508595419
 20
109.5738464293115
 30
0.0
 10
145.763777792792
 20
109.6989721471496
 30
0.0
 11
142.572315699733
 21
108.6989721471496
 31
0.0
 11
143.5989101512929
 21
108.7874045929416
 31
0.0
 11
144.5922909231888
 21
109.0608164224344
 31
0.0
 11
145.1999964295669
 21
109.3404561339243
 31
0.0
 11
145.763777792792
 21
109.6989721471496
 31
0.0
  0
SPLINE
  5
369
330
1F
100
AcDbEntity
  8
Sichtbare_Kanten_TC_020513_DIN_
  6
Continuous
 62
     7
100
AcDbSpline
210
0.0
220
0.0
230
1.0
 70
     8
 71
     3
 72
    11
 73
     7
 74
     5
 42
0.000000001
 43
0.0000000001
 44
0.00000001
 40
0.0
 40
0.0
 40
0.0
 40
0.0
 40
1.126546833402167
 40
2.253055706272155
 40
2.988160854464941
 40
3.722595197146307
 40
3.722595197146307
 40
3.722595197146307
 40
3.722595197146307
 10
140.209477900475
 20
141.1989721471496
 30
0.0
 10
139.8771928865389
 20
141.3754876595201
 30
0.0
 10
139.212634048962
 20
141.7285127225015
 30
0.0
 10
138.254043256498
 20
142.0195285096322
 30
0.0
 10
137.4005360741225
 20
142.1738756757052
 30
0.0
 10
136.9103453360244
 20
142.1906092076891
 30
0.0
 10
136.665361845999
 20
142.1989721471496
 30
0.0
 11
140.209477900475
 21
141.1989721471496
 31
0.0
 11
139.1980691207327
 21
141.6951173361551
 31
0.0
 11
138.1230457325343
 21
142.0317877372341
 31
0.0
 11
137.3985519822273
 21
142.1562400836209
 31
0.0
 11
136.665361845999
 21
142.1989721471496
 31
0.0
  0
LWPOLYLINE
  5
36A
330
1F
100
AcDbEntity
  8
Sichtbare_Kanten_TC_020513_DIN_
  6
Continuous
 62
     7
100
AcDbPolyline
 90
        9
 70
     0
 43
0.5
 10
45.83766978991201
 20
44.32840244118682
 10
45.5177168251293
 20
44.33251993004792
 10
45.20293277514151
 20
44.34473411385522
 10
44.90062755358389
 20
44.36488763634672
 10
44.61340945971182
 20
44.39294235054962
 10
44.34626144182852
 20
44.42870275322901
 10
44.10052341234859
 20
44.47244302575101
 10
43.87303394091299
 20
44.52680007760031
 10
43.65947288286861
 20
44.59579364602082
  0
LWPOLYLINE
  5
36B
330
1F
100
AcDbEntity
  8
Sichtbare_Kanten_TC_020513_DIN_
  6
Continuous
 62
     7
100
AcDbPolyline
 90
        9
 70
     0
 43
0.5
 10
135.257220685603
 20
44.59579364602082
 10
135.041714131953
 20
44.52541486565581
 10
134.812679708125
 20
44.47052614037501
 10
134.566946447017
 20
44.42749873940451
 10
134.301352918269
 20
44.39270870034201
 10
134.01519817126
 20
44.36481134240142
 10
133.713241040828
 20
44.34471265618311
 10
133.398652494075
 20
44.33251516167631
 10
133.07902377856
 20
44.32840244118682
  0
LWPOLYLINE
  5
36C
330
1F
100
AcDbEntity
  8
Sichtbare_Kanten_TC_020513_DIN_
  6
Continuous
 62
     7
100
AcDbPolyline
 90
       25
 70
     0
 43
0.5
 10
82.82509726298031
 20
145.6989731008246
 10
82.7722768188732
 20
146.0103286916446
 10
82.62956541788753
 20
146.3022627050116
 10
82.43162196886709
 20
146.5571178609556
 10
82.21206766379049
 20
146.7738355809876
 10
81.96887117636379
 20
146.9742693120666
 10
81.70706194651302
 20
147.1599210912416
 10
81.43255871546438
 20
147.3310865575506
 10
81.15127843630489
 20
147.4880804235176
 10
80.86913865816769
 20
147.6311887914366
 10
80.59205812227901
 20
147.7607263738346
 10
80.32302957785299
 20
147.8779901677796
 10
80.04885476839712
 20
147.9889597112366
 10
79.76825219404873
 20
148.0940546209046
 10
79.4826404453533
 20
148.1926550084776
 10
79.19343632471731
 20
148.2841314489076
 10
78.90205782663992
 20
148.3678735906316
 10
78.60992115748098
 20
148.4432615453436
 10
78.31842464220699
 20
148.5096277410216
 10
78.02883309137991
 20
148.5664667302796
 10
77.74236482393911
 20
148.6135210210516
 10
77.46023935091671
 20
148.6505331212706
 10
77.1836737991589
 20
148.6772836858466
 10
76.91388767969778
 20
148.6935056859686
 10
76.65209811937979
 20
148.6989702398016
  0
LWPOLYLINE
  5
36D
330
1F
100
AcDbEntity
  8
Sichtbare_Kanten_TC_020513_DIN_
  6
Continuous
 62
     7
100
AcDbPolyline
 90
       25
 70
     0
 43
0.5
 10
102.264595449092
 20
148.6989702398016
 10
102.002805888774
 20
148.6935056859686
 10
101.733019769313
 20
148.6772836858466
 10
101.456454217555
 20
148.6505331212706
 10
101.174328744532
 20
148.6135210210516
 10
100.887860477092
 20
148.5664667302796
 10
100.598268926264
 20
148.5096277410216
 10
100.306772410991
 20
148.4432615453436
 10
100.0146357418316
 20
148.3678735906316
 10
99.72325724375423
 20
148.2841314489076
 10
99.43405312311819
 20
148.1926550084776
 10
99.14844137442282
 20
148.0940546209046
 10
98.86783880007442
 20
147.9889597112366
 10
98.5936639906185
 20
147.8779901677796
 10
98.32463544619259
 20
147.7607263738346
 10
98.04755491030392
 20
147.6311887914366
 10
97.76541513216671
 20
147.4880804235176
 10
97.4841348530071
 20
147.3310865575506
 10
97.20963162195858
 20
147.1599210912416
 10
96.94782239210781
 20
146.9742693120666
 10
96.704625904681
 20
146.7738355809876
 10
96.4850715996044
 20
146.5571178609556
 10
96.28712815058401
 20
146.3022627050116
 10
96.14441674959829
 20
146.0103286916446
 10
96.0915963054913
 20
145.6989731008246
  0
LWPOLYLINE
  5
36E
330
1F
100
AcDbEntity
  8
Sichtbare_Kanten_TC_020513_DIN_
  6
Continuous
 62
     7
100
AcDbPolyline
 90
       25
 70
     0
 43
0.5
 10
133.480043828608
 20
48.27897207085601
 10
133.457146108271
 20
48.27788607422821
 10
133.434181630732
 20
48.27684537713041
 10
133.411155164363
 20
48.27585117165552
 10
133.388071477534
 20
48.27490107361781
 10
133.364925801875
 20
48.27399746720302
 10
133.341722905757
 20
48.27313916031822
 10
133.318467557551
 20
48.27232615296352
 10
133.29516452563
 20
48.27155963723171
 10
133.271804273249
 20
48.27083842102991
 10
133.248401105525
 20
48.27016369645111
 10
133.224955022456
 20
48.26953427140222
 10
133.201466024043
 20
48.26895133797631
 10
133.177934110286
 20
48.26841489617331
 10
133.154364049556
 20
48.26792494599332
 10
133.130760610225
 20
48.26748029534331
 10
133.107119023921
 20
48.26708332840912
 10
133.083448827388
 20
48.26673166100491
 10
133.059750020625
 20
48.26642767731651
 10
133.036027372004
 20
48.26616899315822
 10
133.012276113154
 20
48.26595799271571
 10
132.988505780818
 20
48.26579348389611
 10
132.964711606623
 20
48.26567665879242
 10
132.940903127314
 20
48.26560632531152
 10
132.917080342891
 20
48.26558248345361
  0
LWPOLYLINE
  5
36F
330
1F
100
AcDbEntity
  8
Sichtbare_Kanten_TC_020513_DIN_
  6
Continuous
 62
     7
100
AcDbPolyline
 90
       25
 70
     0
 43
0.5
 10
45.99961322558102
 20
48.26558248345361
 10
45.97586196673092
 20
48.26560632531152
 10
45.9521154762524
 20
48.26567546669951
 10
45.92838329088858
 20
48.26579229180322
 10
45.90465587389639
 20
48.26595680062282
 10
45.88094753039047
 20
48.26616660897241
 10
45.85725349199942
 20
48.26642410103781
 10
45.83357375872311
 20
48.26672689263332
 10
45.80991786730459
 20
48.26707736794462
 10
45.7862858177441
 20
48.26747433487881
 10
45.76268237841299
 20
48.26791779343591
 10
45.7391027809399
 20
48.26840774361602
 10
45.71555179369619
 20
48.26894418541902
 10
45.69203418505362
 20
48.26952711884481
 10
45.66855949175533
 20
48.27015535180082
 10
45.64512771380123
 20
48.27083126847251
 10
45.62174361956289
 20
48.27155248467432
 10
45.59840244066891
 20
48.27232019249902
 10
45.57511848223379
 20
48.27313319985382
 10
45.55188697588608
 20
48.27399269883141
 10
45.52871268999752
 20
48.27489749733911
 10
45.50560039293941
 20
48.27584759537682
 10
45.48255008471182
 20
48.27684418503751
 10
45.45956653368637
 20
48.27788488213531
 10
45.43664973986319
 20
48.27897207085601
  0
LWPOLYLINE
  5
370
330
1F
100
AcDbEntity
  8
Sichtbare_Kanten_TC_020513_DIN_
  6
Continuous
 62
     7
100
AcDbPolyline
 90
       25
 70
     0
 43
0.5
 10
132.970748365046
 20
48.28295008484832
 10
132.988295972468
 20
48.28295008484832
 10
133.00961059344
 20
48.28294889275541
 10
133.032546460749
 20
48.28294531647671
 10
133.054967343928
 20
48.28294054810512
 10
133.075786054255
 20
48.28293101136192
 10
133.096833646418
 20
48.28291789834012
 10
133.118052899958
 20
48.28289644066801
 10
133.139234006526
 20
48.28286783043851
 10
133.160229146601
 20
48.28282968346581
 10
133.181529462458
 20
48.28277842347131
 10
133.203182637812
 20
48.28271166626922
 10
133.22508853686
 20
48.28262464348781
 10
133.247137487056
 20
48.28251616303432
 10
133.269234120967
 20
48.28238264863001
 10
133.29127830279
 20
48.28222171608911
 10
133.31316035998
 20
48.28202859704001
 10
133.334780156733
 20
48.28180209938991
 10
133.356161534907
 20
48.28153745476711
 10
133.377333104731
 20
48.28123347107871
 10
133.398294866206
 20
48.28088418786042
 10
133.419046819331
 20
48.28048722092611
 10
133.439593732478
 20
48.28003780190451
 10
133.459921300532
 20
48.27953473870262
 10
133.480043828608
 20
48.27897207085601
  0
LWPOLYLINE
  5
371
330
1F
100
AcDbEntity
  8
Sichtbare_Kanten_TC_020513_DIN_
  6
Continuous
 62
     7
100
AcDbPolyline
 90
       25
 70
     0
 43
0.5
 10
45.43664973986319
 20
48.27897207085601
 10
45.45370143664047
 20
48.27945248429281
 10
45.47101539385488
 20
48.27989236657132
 10
45.48871558916738
 20
48.28029290978422
 10
45.50680202257797
 20
48.28065649811732
 10
45.52527469408682
 20
48.28098551575651
 10
45.54412406695059
 20
48.28128115479461
 10
45.56335490954092
 20
48.28154579941742
 10
45.58295768511471
 20
48.28178183381071
 10
45.602941930415
 20
48.28198925797452
 10
45.62329334032711
 20
48.28217045609461
 10
45.64401191485098
 20
48.28232662026392
 10
45.6651024223583
 20
48.28246132676112
 10
45.68655532610592
 20
48.28257457558622
 10
45.70837062609371
 20
48.28266875092491
 10
45.7305435539501
 20
48.28274623696311
 10
45.75307887804678
 20
48.28280703370081
 10
45.77596706164047
 20
48.28285590950951
 10
45.79920810473141
 20
48.28289048020351
 10
45.8228020073193
 20
48.28291670624721
 10
45.84674400103262
 20
48.28293339554772
 10
45.8710293174999
 20
48.28294293229092
 10
45.89566272509268
 20
48.28294770066251
 10
45.92063468706783
 20
48.28295008484832
 10
45.9459452034252
 20
48.28295008484832
  0
MTEXT
  5
372
330
1F
100
AcDbEntity
  8
1
 62
     7
100
AcDbMText
 10
144.2763006887428
 20
12.5
 30
0.0
 40
4.5
 41
0.0
 71
     4
 72
     1
  1
MAV 24 LG40\Phood top entry with lever, M40.
  7
CONVERTER_11
 73
     1
 44
0.90036014405762
  0
MTEXT
  5
373
330
1F
100
AcDbEntity
  8
1
 62
     7
100
AcDbMText
 10
119.6000000000001
 20
12.49999999999987
 30
0.0
 40
3.0
 41
0.0
 71
     4
 72
     1
  1
07/08/14
  7
CONVERTER_11
 73
     1
 44
1.32052821128451
  0
MTEXT
  5
374
330
1F
100
AcDbEntity
  8
1
 62
     7
100
AcDbMText
 10
119.6000000000001
 20
7.49999999999987
 30
0.0
 40
3.0
 41
0.0
 71
     4
 72
     1
  1
Pezzimenti
  7
CONVERTER_11
 73
     1
 44
1.32052821128451
  0
MTEXT
  5
375
330
1F
100
AcDbEntity
  8
1
 62
     7
100
AcDbMText
 10
256.6763006887428
 20
10.06063942075605
 30
0.0
 40
4.5
 41
0.0
 71
     5
 72
     1
  1
1:1
  7
CONVERTER_11
 73
     1
 44
1.32052821128451
  0
DIMENSION
  5
381
330
1F
100
AcDbEntity
  8
1
100
AcDbDimension
  2
*D2
 10
181.097062764187
 20
66.69897214714995
 30
0.0
 11
177.597062764187
 21
117.1989721471498
 31
0.0
 70
    32
  1
<>
 71
     5
 42
-1.0
 53
90.0
  3
ME10_DIM_10
100
AcDbAlignedDimension
 13
107.458346784236
 23
167.6989721471496
 33
0.0
 14
143.458346784236
 24
66.6989721471499
 34
0.0
 50
90.0
100
AcDbRotatedDimension
  0
DIMENSION
  5
38C
330
1F
100
AcDbEntity
  8
1
100
AcDbDimension
  2
*D3
 10
171.385303562297
 20
148.6989721471496
 30
0.0
 11
167.885303562297
 21
107.6989721471498
 31
0.0
 70
    32
  1
<>
 71
     5
 42
-1.0
 53
90.0
  3
ME10_DIM_11
100
AcDbAlignedDimension
 13
149.508346784236
 23
66.6989721471499
 33
0.0
 14
137.333346784236
 24
148.6989721471496
 34
0.0
 50
90.0
100
AcDbRotatedDimension
  0
DIMENSION
  5
397
330
1F
100
AcDbEntity
  8
1
100
AcDbDimension
  2
*D4
 10
29.4583467842358
 20
126.637288857447
 30
0.0
 11
96.7756040052406
 21
130.137288857447
 31
0.0
 70
    32
  1
<>
 71
     5
 42
-1.0
 53
0.00013888888889
  3
ME10_DIM_12
100
AcDbAlignedDimension
 13
149.458346784236
 23
104.1989721471496
 33
0.0
 14
29.4583467842358
 24
104.1989721471496
 34
0.0
100
AcDbRotatedDimension
  0
DIMENSION
  5
3A2
330
1F
100
AcDbEntity
  8
1
100
AcDbDimension
  2
*D5
 10
157.458346784236
 20
29.9633062052349
 30
0.0
 11
89.45834678423591
 21
33.4633062052349
 31
0.0
 70
    32
  1
<>
 71
     5
 42
-1.0
 53
0.00013888888889
  3
ME10_DIM_13
100
AcDbAlignedDimension
 13
21.4583467842358
 23
69.9489721471499
 33
0.0
 14
157.458346784236
 24
69.9489721471499
 34
0.0
100
AcDbRotatedDimension
  0
DIMENSION
  5
3AD
330
1F
100
AcDbEntity
  8
1
100
AcDbDimension
  2
*D6
 10
277.9485559923311
 20
30.3243740200604
 30
0.0
 11
240.92497741156
 21
33.8243740200604
 31
0.0
 70
    32
  1
74
 71
     5
 42
-1.0
 53
0.00013888888889
  3
ME10_DIM_14
100
AcDbAlignedDimension
 13
203.9013988307889
 23
66.6989721471499
 33
0.0
 14
277.9485559923311
 24
74.1989721471499
 34
0.0
100
AcDbRotatedDimension
  0
DIMENSION
  5
3B8
330
1F
100
AcDbEntity
  8
1
100
AcDbDimension
  2
*D7
 10
246.951398830789
 20
119.432048327902
 30
0.0
 11
230.830335822817
 21
122.932048327902
 31
0.0
 70
    32
  1
<>
 71
     5
 42
-1.0
 53
0.00013888888889
  3
ME10_DIM_15
100
AcDbAlignedDimension
 13
203.951398830789
 23
108.6989721471496
 33
0.0
 14
246.951398830789
 24
108.6989721471496
 34
0.0
100
AcDbRotatedDimension
  0
DIMENSION
  5
3C3
330
1F
100
AcDbEntity
  8
1
100
AcDbDimension
  2
*D8
 10
72.29634678423577
 20
177.296866517578
 30
0.0
 11
89.45834678423589
 21
180.796866517578
 31
0.0
 70
    32
  1
M40
 71
     5
 42
-1.0
 53
0.00013888888889
  3
ME10_DIM_16
100
AcDbAlignedDimension
 13
106.620346784236
 23
167.1989721471496
 33
0.0
 14
72.29634678423577
 24
167.1989721471496
 34
0.0
100
AcDbRotatedDimension
  0
ENDSEC
  0
SECTION
  2
OBJECTS
  0
DICTIONARY
  5
C
330
0
100
AcDbDictionary
281
     1
  3
ACAD_GROUP
350
D
  3
ACAD_LAYOUT
350
1A
  3
ACAD_MATERIAL
350
3B
  3
ACAD_MLEADERSTYLE
350
3C6
  3
ACAD_MLINESTYLE
350
17
  3
ACAD_PLOTSETTINGS
350
19
  3
ACAD_PLOTSTYLENAME
350
E
  3
ACAD_VISUALSTYLE
350
2A
  3
AcDbVariableDictionary
350
3C4
  0
DICTIONARY
  5
D
102
{ACAD_REACTORS
330
C
102
}
330
C
100
AcDbDictionary
281
     1
  0
DICTIONARY
  5
1A
102
{ACAD_REACTORS
330
C
102
}
330
C
100
AcDbDictionary
281
     1
  3
Layout1
350
1E
  3
Layout2
350
26
  3
Model
350
22
  0
DICTIONARY
  5
3B
102
{ACAD_REACTORS
330
C
102
}
330
C
100
AcDbDictionary
281
     1
  3
ByBlock
350
3D
  3
ByLayer
350
3C
  3
Global
350
3E
  0
DICTIONARY
  5
3C6
102
{ACAD_REACTORS
330
C
102
}
330
C
100
AcDbDictionary
281
     1
  0
DICTIONARY
  5
17
102
{ACAD_REACTORS
330
C
102
}
330
C
100
AcDbDictionary
281
     1
  3
Standard
350
18
  0
DICTIONARY
  5
19
102
{ACAD_REACTORS
330
C
102
}
330
C
100
AcDbDictionary
281
     1
  0
ACDBDICTIONARYWDFLT
  5
E
102
{ACAD_REACTORS
330
C
102
}
330
C
100
AcDbDictionary
281
     1
  3
Normal
350
F
100
AcDbDictionaryWithDefault
340
F
  0
DICTIONARY
  5
2A
102
{ACAD_REACTORS
330
C
102
}
330
C
100
AcDbDictionary
281
     1
  3
2dWireframe
350
2F
  3
3D Hidden
350
31
  3
3dWireframe
350
30
  3
Basic
350
32
  3
Brighten
350
36
  3
ColorChange
350
3A
  3
Conceptual
350
34
  3
Dim
350
35
  3
Facepattern
350
39
  3
Flat
350
2B
  3
FlatWithEdges
350
2C
  3
Gouraud
350
2D
  3
GouraudWithEdges
350
2E
  3
Linepattern
350
38
  3
Realistic
350
33
  3
Thicken
350
37
  0
DICTIONARY
  5
3C4
102
{ACAD_REACTORS
330
C
102
}
330
C
100
AcDbDictionary
281
     1
  3
DIMASSOC
350
3C7
  3
HIDETEXT
350
3C8
  0
LAYOUT
  5
1E
102
{ACAD_REACTORS
330
1A
102
}
330
1A
100
AcDbPlotSettings
  1

  2
none_device
  4

  6

 40
0.0
 41
0.0
 42
0.0
 43
0.0
 44
0.0
 45
0.0
 46
0.0
 47
0.0
 48
0.0
 49
0.0
140
0.0
141
0.0
142
1.0
143
1.0
 70
   688
 72
     0
 73
     0
 74
     5
  7

 75
    16
147
1.0
148
0.0
149
0.0
100
AcDbLayout
  1
Layout1
 70
     1
 71
     1
 10
0.0
 20
0.0
 11
12.0
 21
9.0
 12
0.0
 22
0.0
 32
0.0
 14
1.00000000000000E+20
 24
1.00000000000000E+20
 34
1.00000000000000E+20
 15
-1.00000000000000E+20
 25
-1.00000000000000E+20
 35
-1.00000000000000E+20
146
0.0
 13
0.0
 23
0.0
 33
0.0
 16
1.0
 26
0.0
 36
0.0
 17
0.0
 27
1.0
 37
0.0
 76
     0
330
1B
  0
LAYOUT
  5
26
102
{ACAD_REACTORS
330
1A
102
}
330
1A
100
AcDbPlotSettings
  1

  2
none_device
  4

  6

 40
0.0
 41
0.0
 42
0.0
 43
0.0
 44
0.0
 45
0.0
 46
0.0
 47
0.0
 48
0.0
 49
0.0
140
0.0
141
0.0
142
1.0
143
1.0
 70
   688
 72
     0
 73
     0
 74
     5
  7

 75
    16
147
1.0
148
0.0
149
0.0
100
AcDbLayout
  1
Layout2
 70
     1
 71
     2
 10
0.0
 20
0.0
 11
0.0
 21
0.0
 12
0.0
 22
0.0
 32
0.0
 14
0.0
 24
0.0
 34
0.0
 15
0.0
 25
0.0
 35
0.0
146
0.0
 13
0.0
 23
0.0
 33
0.0
 16
1.0
 26
0.0
 36
0.0
 17
0.0
 27
1.0
 37
0.0
 76
     0
330
23
  0
LAYOUT
  5
22
102
{ACAD_REACTORS
330
1A
102
}
330
1A
100
AcDbPlotSettings
  1

  2
none_device
  4

  6

 40
0.0
 41
0.0
 42
0.0
 43
0.0
 44
0.0
 45
0.0
 46
0.0
 47
0.0
 48
0.0
 49
0.0
140
0.0
141
0.0
142
1.0
143
1.0
 70
  1712
 72
     0
 73
     0
 74
     0
  7

 75
     0
147
1.0
148
0.0
149
0.0
100
AcDbLayout
  1
Model
 70
     1
 71
     0
 10
0.0
 20
0.0
 11
12.0
 21
9.0
 12
0.0
 22
0.0
 32
0.0
 14
0.0
 24
0.0
 34
0.0
 15
297.0000000000001
 25
210.0000000000001
 35
0.0
146
0.0
 13
0.0
 23
0.0
 33
0.0
 16
1.0
 26
0.0
 36
0.0
 17
0.0
 27
1.0
 37
0.0
 76
     0
330
1F
331
29
  0
MATERIAL
  5
3D
102
{ACAD_REACTORS
330
3B
102
}
102
{ACAD_XDICTIONARY
360
3EB
102
}
330
3B
100
AcDbMaterial
  1
ByBlock
  0
MATERIAL
  5
3C
102
{ACAD_REACTORS
330
3B
102
}
102
{ACAD_XDICTIONARY
360
3E9
102
}
330
3B
100
AcDbMaterial
  1
ByLayer
  0
MATERIAL
  5
3E
102
{ACAD_REACTORS
330
3B
102
}
102
{ACAD_XDICTIONARY
360
3ED
102
}
330
3B
100
AcDbMaterial
  1
Global
  0
MLINESTYLE
  5
18
102
{ACAD_REACTORS
330
17
102
}
330
17
100
AcDbMlineStyle
  2
Standard
 70
     0
  3

 62
   256
 51
90.0
 52
90.0
 71
     2
 49
0.5
 62
   256
  6
BYLAYER
 49
-0.5
 62
   256
  6
BYLAYER
  0
ACDBPLACEHOLDER
  5
F
102
{ACAD_REACTORS
330
E
102
}
330
E
  0
VISUALSTYLE
  5
2F
102
{ACAD_REACTORS
330
2A
102
}
102
{ACAD_XDICTIONARY
360
3D1
102
}
330
2A
100
AcDbVisualStyle
  2
2dWireframe
 70
     4
 71
     0
 72
     2
 73
     0
 90
        0
 40
-0.6
 41
-30.0
 62
     5
 63
     7
 74
     1
 91
        4
 64
     7
 65
   257
 75
     1
175
     1
 42
1.0
 92
        0
 66
   257
 43
1.0
 76
     1
 77
     6
 78
     2
 67
     7
 79
     5
170
     0
171
     0
290
     0
174
     0
 93
        1
 44
0.0
173
     0
291
     0
 45
0.0
1001
ACAD
1000
AcDbSavedByObjectVersion
1070
     0
  0
VISUALSTYLE
  5
31
102
{ACAD_REACTORS
330
2A
102
}
102
{ACAD_XDICTIONARY
360
3D5
102
}
330
2A
100
AcDbVisualStyle
  2
3D Hidden
 70
     6
 71
     1
 72
     2
 73
     2
 90
        0
 40
-0.6
 41
-30.0
 62
     5
 63
     7
 74
     2
 91
        2
 64
     7
 65
   257
 75
     2
175
     1
 42
40.0
 92
        0
 66
   257
 43
1.0
 76
     1
 77
     6
 78
     2
 67
     7
 79
     3
170
     0
171
     0
290
     0
174
     0
 93
        1
 44
0.0
173
     0
291
     0
 45
0.0
1001
ACAD
1000
AcDbSavedByObjectVersion
1070
     0
  0
VISUALSTYLE
  5
30
102
{ACAD_REACTORS
330
2A
102
}
102
{ACAD_XDICTIONARY
360
3D3
102
}
330
2A
100
AcDbVisualStyle
  2
3dWireframe
 70
     5
 71
     0
 72
     2
 73
     0
 90
        0
 40
-0.6
 41
-30.0
 62
     5
 63
     7
 74
     1
 91
        4
 64
     7
 65
   257
 75
     1
175
     1
 42
1.0
 92
        0
 66
   257
 43
1.0
 76
     1
 77
     6
 78
     2
 67
     7
 79
     5
170
     0
171
     0
290
     0
174
     0
 93
        1
 44
0.0
173
     0
291
     0
 45
0.0
1001
ACAD
1000
AcDbSavedByObjectVersion
1070
     0
  0
VISUALSTYLE
  5
32
102
{ACAD_REACTORS
330
2A
102
}
102
{ACAD_XDICTIONARY
360
3D7
102
}
330
2A
100
AcDbVisualStyle
  2
Basic
 70
     7
 71
     1
 72
     0
 73
     1
 90
        0
 40
-0.6
 41
-30.0
 62
     5
 63
     7
 74
     0
 91
        4
 64
     7
 65
   257
 75
     1
175
     1
 42
1.0
 92
        8
 66
     7
 43
1.0
 76
     1
 77
     6
 78
     2
 67
     7
 79
     5
170
     0
171
     0
290
     0
174
     0
 93
        1
 44
0.0
173
     0
291
     1
 45
0.0
1001
ACAD
1000
AcDbSavedByObjectVersion
1070
     0
  0
VISUALSTYLE
  5
36
102
{ACAD_REACTORS
330
2A
102
}
102
{ACAD_XDICTIONARY
360
3DF
102
}
330
2A
100
AcDbVisualStyle
  2
Brighten
 70
    12
 71
     2
 72
     2
 73
     0
 90
        0
 40
-0.6
 41
-30.0
 62
     5
 63
     7
 74
     1
 91
        4
 64
     7
 65
   257
 75
     1
175
     1
 42
1.0
 92
        8
 66
     7
 43
1.0
 76
     1
 77
     6
 78
     2
 67
     7
 79
     5
170
     0
171
     0
290
     0
174
     0
 93
        1
 44
50.0
173
     0
291
     1
 45
0.0
1001
ACAD
1000
AcDbSavedByObjectVersion
1070
     0
  0
VISUALSTYLE
  5
3A
102
{ACAD_REACTORS
330
2A
102
}
102
{ACAD_XDICTIONARY
360
3E7
102
}
330
2A
100
AcDbVisualStyle
  2
ColorChange
 70
    16
 71
     2
 72
     2
 73
     3
 90
        0
 40
-0.6
 41
-30.0
 62
     5
 63
     8
 74
     1
 91
        4
 64
     7
 65
   257
 75
     1
175
     1
 42
1.0
 92
        8
 66
     8
 43
1.0
 76
     1
 77
     6
 78
     2
 67
     7
 79
     5
170
     0
171
     0
290
     0
174
     0
 93
        1
 44
0.0
173
     0
291
     1
 45
0.0
1001
ACAD
1000
AcDbSavedByObjectVersion
1070
     0
  0
VISUALSTYLE
  5
34
102
{ACAD_REACTORS
330
2A
102
}
102
{ACAD_XDICTIONARY
360
3DB
102
}
330
2A
100
AcDbVisualStyle
  2
Conceptual
 70
     9
 71
     3
 72
     2
 73
     0
 90
        0
 40
-0.6
 41
-30.0
 62
     5
 63
     7
 74
     2
 91
        2
 64
     7
 65
   257
 75
     1
175
     1
 42
40.0
 92
        8
 66
     7
 43
1.0
 76
     1
 77
     6
 78
     2
 67
     7
 79
     3
170
     0
171
     0
290
     0
174
     0
 93
        1
 44
0.0
173
     0
291
     0
 45
0.0
1001
ACAD
1000
AcDbSavedByObjectVersion
1070
     0
  0
VISUALSTYLE
  5
35
102
{ACAD_REACTORS
330
2A
102
}
102
{ACAD_XDICTIONARY
360
3DD
102
}
330
2A
100
AcDbVisualStyle
  2
Dim
 70
    11
 71
     2
 72
     2
 73
     0
 90
        0
 40
-0.6
 41
-30.0
 62
     5
 63
     7
 74
     1
 91
        4
 64
     7
 65
   257
 75
     1
175
     1
 42
1.0
 92
        8
 66
     7
 43
1.0
 76
     1
 77
     6
 78
     2
 67
     7
 79
     5
170
     0
171
     0
290
     0
174
     0
 93
        1
 44
-50.0
173
     0
291
     1
 45
0.0
1001
ACAD
1000
AcDbSavedByObjectVersion
1070
     0
  0
VISUALSTYLE
  5
39
102
{ACAD_REACTORS
330
2A
102
}
102
{ACAD_XDICTIONARY
360
3E5
102
}
330
2A
100
AcDbVisualStyle
  2
Facepattern
 70
    15
 71
     2
 72
     2
 73
     0
 90
        0
 40
-0.6
 41
-30.0
 62
     5
 63
     7
 74
     1
 91
        4
 64
     7
 65
   257
 75
     1
175
     1
 42
1.0
 92
        8
 66
     7
 43
1.0
 76
     1
 77
     6
 78
     2
 67
     7
 79
     5
170
     0
171
     0
290
     0
174
     0
 93
        1
 44
0.0
173
     0
291
     1
 45
0.0
1001
ACAD
1000
AcDbSavedByObjectVersion
1070
     0
  0
VISUALSTYLE
  5
2B
102
{ACAD_REACTORS
330
2A
102
}
102
{ACAD_XDICTIONARY
360
3C9
102
}
330
2A
100
AcDbVisualStyle
  2
Flat
 70
     0
 71
     2
 72
     1
 73
     1
 90
        2
 40
-0.6
 41
30.0
 62
     5
 63
     7
 74
     0
 91
        4
 64
     7
 65
   257
 75
     1
175
     1
 42
1.0
 92
        8
 66
     7
 43
1.0
 76
     1
 77
     6
 78
     2
 67
     7
 79
     5
170
     0
171
     0
290
     0
174
     0
 93
       13
 44
0.0
173
     0
291
     1
 45
0.0
1001
ACAD
1000
AcDbSavedByObjectVersion
1070
     0
  0
VISUALSTYLE
  5
2C
102
{ACAD_REACTORS
330
2A
102
}
102
{ACAD_XDICTIONARY
360
3CB
102
}
330
2A
100
AcDbVisualStyle
  2
FlatWithEdges
 70
     1
 71
     2
 72
     1
 73
     1
 90
        2
 40
-0.6
 41
30.0
 62
     5
 63
     7
 74
     1
 91
        4
 64
     7
 65
   257
 75
     1
175
     1
 42
1.0
 92
        0
 66
   257
 43
1.0
 76
     1
 77
     6
 78
     2
 67
     7
 79
     5
170
     0
171
     0
290
     0
174
     0
 93
       13
 44
0.0
173
     0
291
     1
 45
0.0
1001
ACAD
1000
AcDbSavedByObjectVersion
1070
     0
  0
VISUALSTYLE
  5
2D
102
{ACAD_REACTORS
330
2A
102
}
102
{ACAD_XDICTIONARY
360
3CD
102
}
330
2A
100
AcDbVisualStyle
  2
Gouraud
 70
     2
 71
     2
 72
     2
 73
     1
 90
        2
 40
-0.6
 41
30.0
 62
     5
 63
     7
 74
     0
 91
        4
 64
     7
 65
   257
 75
     1
175
     1
 42
1.0
 92
        0
 66
     7
 43
1.0
 76
     1
 77
     6
 78
     2
 67
     7
 79
     5
170
     0
171
     0
290
     0
174
     0
 93
       13
 44
0.0
173
     0
291
     1
 45
0.0
1001
ACAD
1000
AcDbSavedByObjectVersion
1070
     0
  0
VISUALSTYLE
  5
2E
102
{ACAD_REACTORS
330
2A
102
}
102
{ACAD_XDICTIONARY
360
3CF
102
}
330
2A
100
AcDbVisualStyle
  2
GouraudWithEdges
 70
     3
 71
     2
 72
     2
 73
     1
 90
        2
 40
-0.6
 41
30.0
 62
     5
 63
     7
 74
     1
 91
        4
 64
     7
 65
   257
 75
     1
175
     1
 42
1.0
 92
        0
 66
   257
 43
1.0
 76
     1
 77
     6
 78
     2
 67
     7
 79
     5
170
     0
171
     0
290
     0
174
     0
 93
       13
 44
0.0
173
     0
291
     1
 45
0.0
1001
ACAD
1000
AcDbSavedByObjectVersion
1070
     0
  0
VISUALSTYLE
  5
38
102
{ACAD_REACTORS
330
2A
102
}
102
{ACAD_XDICTIONARY
360
3E3
102
}
330
2A
100
AcDbVisualStyle
  2
Linepattern
 70
    14
 71
     2
 72
     2
 73
     0
 90
        0
 40
-0.6
 41
-30.0
 62
     5
 63
     7
 74
     1
 91
        4
 64
     7
 65
   257
 75
     7
175
     7
 42
1.0
 92
        8
 66
     7
 43
1.0
 76
     1
 77
     6
 78
     2
 67
     7
 79
     5
170
     0
171
     0
290
     0
174
     0
 93
        1
 44
0.0
173
     0
291
     1
 45
0.0
1001
ACAD
1000
AcDbSavedByObjectVersion
1070
     0
  0
VISUALSTYLE
  5
33
102
{ACAD_REACTORS
330
2A
102
}
102
{ACAD_XDICTIONARY
360
3D9
102
}
330
2A
100
AcDbVisualStyle
  2
Realistic
 70
     8
 71
     2
 72
     2
 73
     0
 90
        0
 40
-0.6
 41
-30.0
 62
     5
 63
     7
 74
     1
 91
        0
 64
     7
 65
   257
 75
     1
175
     1
 42
1.0
 92
        8
 66
     8
 43
1.0
 76
     1
 77
     6
 78
     2
 67
     7
 79
     5
170
     0
171
     0
290
     0
174
     0
 93
       13
 44
0.0
173
     0
291
     0
 45
0.0
1001
ACAD
1000
AcDbSavedByObjectVersion
1070
     0
  0
VISUALSTYLE
  5
37
102
{ACAD_REACTORS
330
2A
102
}
102
{ACAD_XDICTIONARY
360
3E1
102
}
330
2A
100
AcDbVisualStyle
  2
Thicken
 70
    13
 71
     2
 72
     2
 73
     0
 90
        0
 40
-0.6
 41
-30.0
 62
     5
 63
     7
 74
     1
 91
        4
 64
     7
 65
   257
 75
     1
175
     1
 42
1.0
 92
       12
 66
     7
 43
1.0
 76
     1
 77
     6
 78
     2
 67
     7
 79
     5
170
     0
171
     0
290
     0
174
     0
 93
        1
 44
0.0
173
     0
291
     1
 45
0.0
1001
ACAD
1000
AcDbSavedByObjectVersion
1070
     0
  0
DICTIONARYVAR
  5
3C7
102
{ACAD_REACTORS
330
3C4
102
}
330
3C4
100
DictionaryVariables
280
     0
  1
2
  0
DICTIONARYVAR
  5
3C8
102
{ACAD_REACTORS
330
3C4
102
}
330
3C4
100
DictionaryVariables
280
     0
  1
1
  0
DICTIONARY
  5
3EB
330
3D
100
AcDbDictionary
280
     1
281
     1
  3
ACAD_XREC_ROUNDTRIP
360
3EC
  0
DICTIONARY
  5
3E9
330
3C
100
AcDbDictionary
280
     1
281
     1
  3
ACAD_XREC_ROUNDTRIP
360
3EA
  0
DICTIONARY
  5
3ED
330
3E
100
AcDbDictionary
280
     1
281
     1
  3
ACAD_XREC_ROUNDTRIP
360
3EE
  0
DICTIONARY
  5
3D1
330
2F
100
AcDbDictionary
280
     1
281
     1
  3
ACAD_XREC_ROUNDTRIP
360
3D2
  0
DICTIONARY
  5
3D5
330
31
100
AcDbDictionary
280
     1
281
     1
  3
ACAD_XREC_ROUNDTRIP
360
3D6
  0
DICTIONARY
  5
3D3
330
30
100
AcDbDictionary
280
     1
281
     1
  3
ACAD_XREC_ROUNDTRIP
360
3D4
  0
DICTIONARY
  5
3D7
330
32
100
AcDbDictionary
280
     1
281
     1
  3
ACAD_XREC_ROUNDTRIP
360
3D8
  0
DICTIONARY
  5
3DF
330
36
100
AcDbDictionary
280
     1
281
     1
  3
ACAD_XREC_ROUNDTRIP
360
3E0
  0
DICTIONARY
  5
3E7
330
3A
100
AcDbDictionary
280
     1
281
     1
  3
ACAD_XREC_ROUNDTRIP
360
3E8
  0
DICTIONARY
  5
3DB
330
34
100
AcDbDictionary
280
     1
281
     1
  3
ACAD_XREC_ROUNDTRIP
360
3DC
  0
DICTIONARY
  5
3DD
330
35
100
AcDbDictionary
280
     1
281
     1
  3
ACAD_XREC_ROUNDTRIP
360
3DE
  0
DICTIONARY
  5
3E5
330
39
100
AcDbDictionary
280
     1
281
     1
  3
ACAD_XREC_ROUNDTRIP
360
3E6
  0
DICTIONARY
  5
3C9
330
2B
100
AcDbDictionary
280
     1
281
     1
  3
ACAD_XREC_ROUNDTRIP
360
3CA
  0
DICTIONARY
  5
3CB
330
2C
100
AcDbDictionary
280
     1
281
     1
  3
ACAD_XREC_ROUNDTRIP
360
3CC
  0
DICTIONARY
  5
3CD
330
2D
100
AcDbDictionary
280
     1
281
     1
  3
ACAD_XREC_ROUNDTRIP
360
3CE
  0
DICTIONARY
  5
3CF
330
2E
100
AcDbDictionary
280
     1
281
     1
  3
ACAD_XREC_ROUNDTRIP
360
3D0
  0
DICTIONARY
  5
3E3
330
38
100
AcDbDictionary
280
     1
281
     1
  3
ACAD_XREC_ROUNDTRIP
360
3E4
  0
DICTIONARY
  5
3D9
330
33
100
AcDbDictionary
280
     1
281
     1
  3
ACAD_XREC_ROUNDTRIP
360
3DA
  0
DICTIONARY
  5
3E1
330
37
100
AcDbDictionary
280
     1
281
     1
  3
ACAD_XREC_ROUNDTRIP
360
3E2
  0
XRECORD
  5
3EC
102
{ACAD_REACTORS
330
3EB
102
}
330
3EB
100
AcDbXrecord
280
     1
102
MATERIAL
148
0.0
149
0.0
149
0.0
 93
        0
 94
      127
282
     0
 72
     1
 77
     1
171
     1
175
     1
179
     1
273
     0
  0
XRECORD
  5
3EA
102
{ACAD_REACTORS
330
3E9
102
}
330
3E9
100
AcDbXrecord
280
     1
102
MATERIAL
148
0.0
149
0.0
149
0.0
 93
        0
 94
      127
282
     0
 72
     1
 77
     1
171
     1
175
     1
179
     1
273
     0
  0
XRECORD
  5
3EE
102
{ACAD_REACTORS
330
3ED
102
}
330
3ED
100
AcDbXrecord
280
     1
102
MATERIAL
148
0.0
149
0.0
149
0.0
 93
        0
 94
      127
282
     0
 72
     1
 77
     1
171
     1
175
     1
179
     1
273
     0
  0
XRECORD
  5
3D2
102
{ACAD_REACTORS
330
3D1
102
}
330
3D1
100
AcDbXrecord
280
     1
102
RTVSPropertyOp0
 70
     1
102
RTVSPropertyOp1
 70
     1
102
RTVSPropertyOp2
 70
     1
102
RTVSPropertyOp3
 70
     1
102
RTVSPropertyOp4
 70
     1
102
RTVSPropertyOp5
 70
     1
102
RTVSPropertyOp6
 70
     1
102
RTVSPropertyOp7
 70
     1
102
RTVSPropertyOp8
 70
     1
102
RTVSPropertyOp9
 70
     1
102
RTVSPropertyOp10
 70
     1
102
RTVSPropertyOp11
 70
     1
102
RTVSPropertyOp12
 70
     1
102
RTVSPropertyOp13
 70
     1
102
RTVSPropertyOp14
 70
     1
102
RTVSPropertyOp15
 70
     1
102
RTVSPropertyOp16
 70
     1
102
RTVSPropertyOp17
 70
     1
102
RTVSPropertyOp18
 70
     1
102
RTVSPropertyOp19
 70
     1
102
RTVSPropertyOp20
 70
     1
102
RTVSPropertyOp21
 70
     1
102
RTVSPropertyOp22
 70
     1
102
RTVSPropertyOp23
 70
     1
102
RTVSPropertyOp24
 70
     1
102
RTVSPropertyOp25
 70
     1
102
RTVSPropertyOp26
 70
     1
102
RTVSPropertyOp27
 70
     1
102
RTVSPropertyOp28
 70
     1
102
RTVSPropertyOp29
 70
     1
102
RTVSPropertyOp30
 70
     1
102
RTVSPropertyOp31
 70
     1
102
RTVSPropertyOp32
 70
     1
  0
XRECORD
  5
3D6
102
{ACAD_REACTORS
330
3D5
102
}
330
3D5
100
AcDbXrecord
280
     1
102
RTVSPropertyOp0
 70
     1
102
RTVSPropertyOp1
 70
     1
102
RTVSPropertyOp2
 70
     1
102
RTVSPropertyOp3
 70
     1
102
RTVSPropertyOp4
 70
     1
102
RTVSPropertyOp5
 70
     1
102
RTVSPropertyOp6
 70
     1
102
RTVSPropertyOp7
 70
     1
102
RTVSPropertyOp8
 70
     1
102
RTVSPropertyOp9
 70
     1
102
RTVSPropertyOp10
 70
     1
102
RTVSPropertyOp11
 70
     1
102
RTVSPropertyOp12
 70
     1
102
RTVSPropertyOp13
 70
     1
102
RTVSPropertyOp14
 70
     1
102
RTVSPropertyOp15
 70
     1
102
RTVSPropertyOp16
 70
     1
102
RTVSPropertyOp17
 70
     1
102
RTVSPropertyOp18
 70
     1
102
RTVSPropertyOp19
 70
     1
102
RTVSPropertyOp20
 70
     1
102
RTVSPropertyOp21
 70
     1
102
RTVSPropertyOp22
 70
     1
102
RTVSPropertyOp23
 70
     1
102
RTVSPropertyOp24
 70
     1
102
RTVSPropertyOp25
 70
     1
102
RTVSPropertyOp26
 70
     1
102
RTVSPropertyOp27
 70
     1
102
RTVSPropertyOp28
 70
     1
102
RTVSPropertyOp29
 70
     1
102
RTVSPropertyOp30
 70
     1
102
RTVSPropertyOp31
 70
     1
102
RTVSPropertyOp32
 70
     1
  0
XRECORD
  5
3D4
102
{ACAD_REACTORS
330
3D3
102
}
330
3D3
100
AcDbXrecord
280
     1
102
RTVSPropertyOp0
 70
     1
102
RTVSPropertyOp1
 70
     1
102
RTVSPropertyOp2
 70
     1
102
RTVSPropertyOp3
 70
     1
102
RTVSPropertyOp4
 70
     1
102
RTVSPropertyOp5
 70
     1
102
RTVSPropertyOp6
 70
     1
102
RTVSPropertyOp7
 70
     1
102
RTVSPropertyOp8
 70
     1
102
RTVSPropertyOp9
 70
     1
102
RTVSPropertyOp10
 70
     1
102
RTVSPropertyOp11
 70
     1
102
RTVSPropertyOp12
 70
     1
102
RTVSPropertyOp13
 70
     1
102
RTVSPropertyOp14
 70
     1
102
RTVSPropertyOp15
 70
     1
102
RTVSPropertyOp16
 70
     1
102
RTVSPropertyOp17
 70
     1
102
RTVSPropertyOp18
 70
     1
102
RTVSPropertyOp19
 70
     1
102
RTVSPropertyOp20
 70
     1
102
RTVSPropertyOp21
 70
     1
102
RTVSPropertyOp22
 70
     1
102
RTVSPropertyOp23
 70
     1
102
RTVSPropertyOp24
 70
     1
102
RTVSPropertyOp25
 70
     1
102
RTVSPropertyOp26
 70
     1
102
RTVSPropertyOp27
 70
     1
102
RTVSPropertyOp28
 70
     1
102
RTVSPropertyOp29
 70
     1
102
RTVSPropertyOp30
 70
     1
102
RTVSPropertyOp31
 70
     1
102
RTVSPropertyOp32
 70
     1
  0
XRECORD
  5
3D8
102
{ACAD_REACTORS
330
3D7
102
}
330
3D7
100
AcDbXrecord
280
     1
102
RTVSPropertyOp0
 70
     1
102
RTVSPropertyOp1
 70
     1
102
RTVSPropertyOp2
 70
     1
102
RTVSPropertyOp3
 70
     1
102
RTVSPropertyOp4
 70
     1
102
RTVSPropertyOp5
 70
     1
102
RTVSPropertyOp6
 70
     1
102
RTVSPropertyOp7
 70
     1
102
RTVSPropertyOp8
 70
     1
102
RTVSPropertyOp9
 70
     1
102
RTVSPropertyOp10
 70
     1
102
RTVSPropertyOp11
 70
     1
102
RTVSPropertyOp12
 70
     1
102
RTVSPropertyOp13
 70
     1
102
RTVSPropertyOp14
 70
     1
102
RTVSPropertyOp15
 70
     1
102
RTVSPropertyOp16
 70
     1
102
RTVSPropertyOp17
 70
     1
102
RTVSPropertyOp18
 70
     1
102
RTVSPropertyOp19
 70
     1
102
RTVSPropertyOp20
 70
     1
102
RTVSPropertyOp21
 70
     1
102
RTVSPropertyOp22
 70
     1
102
RTVSPropertyOp23
 70
     1
102
RTVSPropertyOp24
 70
     1
102
RTVSPropertyOp25
 70
     1
102
RTVSPropertyOp26
 70
     1
102
RTVSPropertyOp27
 70
     1
102
RTVSPropertyOp28
 70
     1
102
RTVSPropertyOp29
 70
     1
102
RTVSPropertyOp30
 70
     1
102
RTVSPropertyOp31
 70
     1
102
RTVSPropertyOp32
 70
     1
  0
XRECORD
  5
3E0
102
{ACAD_REACTORS
330
3DF
102
}
330
3DF
100
AcDbXrecord
280
     1
102
RTVSPropertyOp0
 70
     1
102
RTVSPropertyOp1
 70
     1
102
RTVSPropertyOp2
 70
     1
102
RTVSPropertyOp3
 70
     1
102
RTVSPropertyOp4
 70
     1
102
RTVSPropertyOp5
 70
     1
102
RTVSPropertyOp6
 70
     1
102
RTVSPropertyOp7
 70
     1
102
RTVSPropertyOp8
 70
     1
102
RTVSPropertyOp9
 70
     1
102
RTVSPropertyOp10
 70
     1
102
RTVSPropertyOp11
 70
     1
102
RTVSPropertyOp12
 70
     1
102
RTVSPropertyOp13
 70
     1
102
RTVSPropertyOp14
 70
     1
102
RTVSPropertyOp15
 70
     1
102
RTVSPropertyOp16
 70
     1
102
RTVSPropertyOp17
 70
     1
102
RTVSPropertyOp18
 70
     1
102
RTVSPropertyOp19
 70
     1
102
RTVSPropertyOp20
 70
     1
102
RTVSPropertyOp21
 70
     1
102
RTVSPropertyOp22
 70
     1
102
RTVSPropertyOp23
 70
     1
102
RTVSPropertyOp24
 70
     1
102
RTVSPropertyOp25
 70
     1
102
RTVSPropertyOp26
 70
     1
102
RTVSPropertyOp27
 70
     1
102
RTVSPropertyOp28
 70
     1
102
RTVSPropertyOp29
 70
     1
102
RTVSPropertyOp30
 70
     1
102
RTVSPropertyOp31
 70
     1
102
RTVSPropertyOp32
 70
     1
  0
XRECORD
  5
3E8
102
{ACAD_REACTORS
330
3E7
102
}
330
3E7
100
AcDbXrecord
280
     1
102
RTVSPropertyOp0
 70
     1
102
RTVSPropertyOp1
 70
     1
102
RTVSPropertyOp2
 70
     1
102
RTVSPropertyOp3
 70
     1
102
RTVSPropertyOp4
 70
     1
102
RTVSPropertyOp5
 70
     1
102
RTVSPropertyOp6
 70
     1
102
RTVSPropertyOp7
 70
     1
102
RTVSPropertyOp8
 70
     1
102
RTVSPropertyOp9
 70
     1
102
RTVSPropertyOp10
 70
     1
102
RTVSPropertyOp11
 70
     1
102
RTVSPropertyOp12
 70
     1
102
RTVSPropertyOp13
 70
     1
102
RTVSPropertyOp14
 70
     1
102
RTVSPropertyOp15
 70
     1
102
RTVSPropertyOp16
 70
     1
102
RTVSPropertyOp17
 70
     1
102
RTVSPropertyOp18
 70
     1
102
RTVSPropertyOp19
 70
     1
102
RTVSPropertyOp20
 70
     1
102
RTVSPropertyOp21
 70
     1
102
RTVSPropertyOp22
 70
     1
102
RTVSPropertyOp23
 70
     1
102
RTVSPropertyOp24
 70
     1
102
RTVSPropertyOp25
 70
     1
102
RTVSPropertyOp26
 70
     1
102
RTVSPropertyOp27
 70
     1
102
RTVSPropertyOp28
 70
     1
102
RTVSPropertyOp29
 70
     1
102
RTVSPropertyOp30
 70
     1
102
RTVSPropertyOp31
 70
     1
102
RTVSPropertyOp32
 70
     1
  0
XRECORD
  5
3DC
102
{ACAD_REACTORS
330
3DB
102
}
330
3DB
100
AcDbXrecord
280
     1
102
RTVSPropertyOp0
 70
     1
102
RTVSPropertyOp1
 70
     1
102
RTVSPropertyOp2
 70
     1
102
RTVSPropertyOp3
 70
     1
102
RTVSPropertyOp4
 70
     1
102
RTVSPropertyOp5
 70
     1
102
RTVSPropertyOp6
 70
     1
102
RTVSPropertyOp7
 70
     1
102
RTVSPropertyOp8
 70
     1
102
RTVSPropertyOp9
 70
     1
102
RTVSPropertyOp10
 70
     1
102
RTVSPropertyOp11
 70
     1
102
RTVSPropertyOp12
 70
     1
102
RTVSPropertyOp13
 70
     1
102
RTVSPropertyOp14
 70
     1
102
RTVSPropertyOp15
 70
     1
102
RTVSPropertyOp16
 70
     1
102
RTVSPropertyOp17
 70
     1
102
RTVSPropertyOp18
 70
     1
102
RTVSPropertyOp19
 70
     1
102
RTVSPropertyOp20
 70
     1
102
RTVSPropertyOp21
 70
     1
102
RTVSPropertyOp22
 70
     1
102
RTVSPropertyOp23
 70
     1
102
RTVSPropertyOp24
 70
     1
102
RTVSPropertyOp25
 70
     1
102
RTVSPropertyOp26
 70
     1
102
RTVSPropertyOp27
 70
     1
102
RTVSPropertyOp28
 70
     1
102
RTVSPropertyOp29
 70
     1
102
RTVSPropertyOp30
 70
     1
102
RTVSPropertyOp31
 70
     1
102
RTVSPropertyOp32
 70
     1
  0
XRECORD
  5
3DE
102
{ACAD_REACTORS
330
3DD
102
}
330
3DD
100
AcDbXrecord
280
     1
102
RTVSPropertyOp0
 70
     1
102
RTVSPropertyOp1
 70
     1
102
RTVSPropertyOp2
 70
     1
102
RTVSPropertyOp3
 70
     1
102
RTVSPropertyOp4
 70
     1
102
RTVSPropertyOp5
 70
     1
102
RTVSPropertyOp6
 70
     1
102
RTVSPropertyOp7
 70
     1
102
RTVSPropertyOp8
 70
     1
102
RTVSPropertyOp9
 70
     1
102
RTVSPropertyOp10
 70
     1
102
RTVSPropertyOp11
 70
     1
102
RTVSPropertyOp12
 70
     1
102
RTVSPropertyOp13
 70
     1
102
RTVSPropertyOp14
 70
     1
102
RTVSPropertyOp15
 70
     1
102
RTVSPropertyOp16
 70
     1
102
RTVSPropertyOp17
 70
     1
102
RTVSPropertyOp18
 70
     1
102
RTVSPropertyOp19
 70
     1
102
RTVSPropertyOp20
 70
     1
102
RTVSPropertyOp21
 70
     1
102
RTVSPropertyOp22
 70
     1
102
RTVSPropertyOp23
 70
     1
102
RTVSPropertyOp24
 70
     1
102
RTVSPropertyOp25
 70
     1
102
RTVSPropertyOp26
 70
     1
102
RTVSPropertyOp27
 70
     1
102
RTVSPropertyOp28
 70
     1
102
RTVSPropertyOp29
 70
     1
102
RTVSPropertyOp30
 70
     1
102
RTVSPropertyOp31
 70
     1
102
RTVSPropertyOp32
 70
     1
  0
XRECORD
  5
3E6
102
{ACAD_REACTORS
330
3E5
102
}
330
3E5
100
AcDbXrecord
280
     1
102
RTVSPropertyOp0
 70
     1
102
RTVSPropertyOp1
 70
     1
102
RTVSPropertyOp2
 70
     1
102
RTVSPropertyOp3
 70
     1
102
RTVSPropertyOp4
 70
     1
102
RTVSPropertyOp5
 70
     1
102
RTVSPropertyOp6
 70
     1
102
RTVSPropertyOp7
 70
     1
102
RTVSPropertyOp8
 70
     1
102
RTVSPropertyOp9
 70
     1
102
RTVSPropertyOp10
 70
     1
102
RTVSPropertyOp11
 70
     1
102
RTVSPropertyOp12
 70
     1
102
RTVSPropertyOp13
 70
     1
102
RTVSPropertyOp14
 70
     1
102
RTVSPropertyOp15
 70
     1
102
RTVSPropertyOp16
 70
     1
102
RTVSPropertyOp17
 70
     1
102
RTVSPropertyOp18
 70
     1
102
RTVSPropertyOp19
 70
     1
102
RTVSPropertyOp20
 70
     1
102
RTVSPropertyOp21
 70
     1
102
RTVSPropertyOp22
 70
     1
102
RTVSPropertyOp23
 70
     1
102
RTVSPropertyOp24
 70
     1
102
RTVSPropertyOp25
 70
     1
102
RTVSPropertyOp26
 70
     1
102
RTVSPropertyOp27
 70
     1
102
RTVSPropertyOp28
 70
     1
102
RTVSPropertyOp29
 70
     1
102
RTVSPropertyOp30
 70
     1
102
RTVSPropertyOp31
 70
     1
102
RTVSPropertyOp32
 70
     1
  0
XRECORD
  5
3CA
102
{ACAD_REACTORS
330
3C9
102
}
330
3C9
100
AcDbXrecord
280
     1
102
RTVSPropertyOp0
 70
     1
102
RTVSPropertyOp1
 70
     1
102
RTVSPropertyOp2
 70
     1
102
RTVSPropertyOp3
 70
     1
102
RTVSPropertyOp4
 70
     1
102
RTVSPropertyOp5
 70
     1
102
RTVSPropertyOp6
 70
     1
102
RTVSPropertyOp7
 70
     1
102
RTVSPropertyOp8
 70
     1
102
RTVSPropertyOp9
 70
     1
102
RTVSPropertyOp10
 70
     1
102
RTVSPropertyOp11
 70
     1
102
RTVSPropertyOp12
 70
     1
102
RTVSPropertyOp13
 70
     1
102
RTVSPropertyOp14
 70
     1
102
RTVSPropertyOp15
 70
     1
102
RTVSPropertyOp16
 70
     1
102
RTVSPropertyOp17
 70
     1
102
RTVSPropertyOp18
 70
     1
102
RTVSPropertyOp19
 70
     1
102
RTVSPropertyOp20
 70
     1
102
RTVSPropertyOp21
 70
     1
102
RTVSPropertyOp22
 70
     1
102
RTVSPropertyOp23
 70
     1
102
RTVSPropertyOp24
 70
     1
102
RTVSPropertyOp25
 70
     1
102
RTVSPropertyOp26
 70
     1
102
RTVSPropertyOp27
 70
     1
102
RTVSPropertyOp28
 70
     1
102
RTVSPropertyOp29
 70
     1
102
RTVSPropertyOp30
 70
     1
102
RTVSPropertyOp31
 70
     1
102
RTVSPropertyOp32
 70
     1
  0
XRECORD
  5
3CC
102
{ACAD_REACTORS
330
3CB
102
}
330
3CB
100
AcDbXrecord
280
     1
102
RTVSPropertyOp0
 70
     1
102
RTVSPropertyOp1
 70
     1
102
RTVSPropertyOp2
 70
     1
102
RTVSPropertyOp3
 70
     1
102
RTVSPropertyOp4
 70
     1
102
RTVSPropertyOp5
 70
     1
102
RTVSPropertyOp6
 70
     1
102
RTVSPropertyOp7
 70
     1
102
RTVSPropertyOp8
 70
     1
102
RTVSPropertyOp9
 70
     1
102
RTVSPropertyOp10
 70
     1
102
RTVSPropertyOp11
 70
     1
102
RTVSPropertyOp12
 70
     1
102
RTVSPropertyOp13
 70
     1
102
RTVSPropertyOp14
 70
     1
102
RTVSPropertyOp15
 70
     1
102
RTVSPropertyOp16
 70
     1
102
RTVSPropertyOp17
 70
     1
102
RTVSPropertyOp18
 70
     1
102
RTVSPropertyOp19
 70
     1
102
RTVSPropertyOp20
 70
     1
102
RTVSPropertyOp21
 70
     1
102
RTVSPropertyOp22
 70
     1
102
RTVSPropertyOp23
 70
     1
102
RTVSPropertyOp24
 70
     1
102
RTVSPropertyOp25
 70
     1
102
RTVSPropertyOp26
 70
     1
102
RTVSPropertyOp27
 70
     1
102
RTVSPropertyOp28
 70
     1
102
RTVSPropertyOp29
 70
     1
102
RTVSPropertyOp30
 70
     1
102
RTVSPropertyOp31
 70
     1
102
RTVSPropertyOp32
 70
     1
  0
XRECORD
  5
3CE
102
{ACAD_REACTORS
330
3CD
102
}
330
3CD
100
AcDbXrecord
280
     1
102
RTVSPropertyOp0
 70
     1
102
RTVSPropertyOp1
 70
     1
102
RTVSPropertyOp2
 70
     1
102
RTVSPropertyOp3
 70
     1
102
RTVSPropertyOp4
 70
     1
102
RTVSPropertyOp5
 70
     1
102
RTVSPropertyOp6
 70
     1
102
RTVSPropertyOp7
 70
     1
102
RTVSPropertyOp8
 70
     1
102
RTVSPropertyOp9
 70
     1
102
RTVSPropertyOp10
 70
     1
102
RTVSPropertyOp11
 70
     1
102
RTVSPropertyOp12
 70
     1
102
RTVSPropertyOp13
 70
     1
102
RTVSPropertyOp14
 70
     1
102
RTVSPropertyOp15
 70
     1
102
RTVSPropertyOp16
 70
     1
102
RTVSPropertyOp17
 70
     1
102
RTVSPropertyOp18
 70
     1
102
RTVSPropertyOp19
 70
     1
102
RTVSPropertyOp20
 70
     1
102
RTVSPropertyOp21
 70
     1
102
RTVSPropertyOp22
 70
     1
102
RTVSPropertyOp23
 70
     1
102
RTVSPropertyOp24
 70
     1
102
RTVSPropertyOp25
 70
     1
102
RTVSPropertyOp26
 70
     1
102
RTVSPropertyOp27
 70
     1
102
RTVSPropertyOp28
 70
     1
102
RTVSPropertyOp29
 70
     1
102
RTVSPropertyOp30
 70
     1
102
RTVSPropertyOp31
 70
     1
102
RTVSPropertyOp32
 70
     1
  0
XRECORD
  5
3D0
102
{ACAD_REACTORS
330
3CF
102
}
330
3CF
100
AcDbXrecord
280
     1
102
RTVSPropertyOp0
 70
     1
102
RTVSPropertyOp1
 70
     1
102
RTVSPropertyOp2
 70
     1
102
RTVSPropertyOp3
 70
     1
102
RTVSPropertyOp4
 70
     1
102
RTVSPropertyOp5
 70
     1
102
RTVSPropertyOp6
 70
     1
102
RTVSPropertyOp7
 70
     1
102
RTVSPropertyOp8
 70
     1
102
RTVSPropertyOp9
 70
     1
102
RTVSPropertyOp10
 70
     1
102
RTVSPropertyOp11
 70
     1
102
RTVSPropertyOp12
 70
     1
102
RTVSPropertyOp13
 70
     1
102
RTVSPropertyOp14
 70
     1
102
RTVSPropertyOp15
 70
     1
102
RTVSPropertyOp16
 70
     1
102
RTVSPropertyOp17
 70
     1
102
RTVSPropertyOp18
 70
     1
102
RTVSPropertyOp19
 70
     1
102
RTVSPropertyOp20
 70
     1
102
RTVSPropertyOp21
 70
     1
102
RTVSPropertyOp22
 70
     1
102
RTVSPropertyOp23
 70
     1
102
RTVSPropertyOp24
 70
     1
102
RTVSPropertyOp25
 70
     1
102
RTVSPropertyOp26
 70
     1
102
RTVSPropertyOp27
 70
     1
102
RTVSPropertyOp28
 70
     1
102
RTVSPropertyOp29
 70
     1
102
RTVSPropertyOp30
 70
     1
102
RTVSPropertyOp31
 70
     1
102
RTVSPropertyOp32
 70
     1
  0
XRECORD
  5
3E4
102
{ACAD_REACTORS
330
3E3
102
}
330
3E3
100
AcDbXrecord
280
     1
102
RTVSPropertyOp0
 70
     1
102
RTVSPropertyOp1
 70
     1
102
RTVSPropertyOp2
 70
     1
102
RTVSPropertyOp3
 70
     1
102
RTVSPropertyOp4
 70
     1
102
RTVSPropertyOp5
 70
     1
102
RTVSPropertyOp6
 70
     1
102
RTVSPropertyOp7
 70
     1
102
RTVSPropertyOp8
 70
     1
102
RTVSPropertyOp9
 70
     1
102
RTVSPropertyOp10
 70
     1
102
RTVSPropertyOp11
 70
     1
102
RTVSPropertyOp12
 70
     1
102
RTVSPropertyOp13
 70
     1
102
RTVSPropertyOp14
 70
     1
102
RTVSPropertyOp15
 70
     1
102
RTVSPropertyOp16
 70
     1
102
RTVSPropertyOp17
 70
     1
102
RTVSPropertyOp18
 70
     1
102
RTVSPropertyOp19
 70
     1
102
RTVSPropertyOp20
 70
     1
102
RTVSPropertyOp21
 70
     1
102
RTVSPropertyOp22
 70
     1
102
RTVSPropertyOp23
 70
     1
102
RTVSPropertyOp24
 70
     1
102
RTVSPropertyOp25
 70
     1
102
RTVSPropertyOp26
 70
     1
102
RTVSPropertyOp27
 70
     1
102
RTVSPropertyOp28
 70
     1
102
RTVSPropertyOp29
 70
     1
102
RTVSPropertyOp30
 70
     1
102
RTVSPropertyOp31
 70
     1
102
RTVSPropertyOp32
 70
     1
  0
XRECORD
  5
3DA
102
{ACAD_REACTORS
330
3D9
102
}
330
3D9
100
AcDbXrecord
280
     1
102
RTVSPropertyOp0
 70
     1
102
RTVSPropertyOp1
 70
     1
102
RTVSPropertyOp2
 70
     1
102
RTVSPropertyOp3
 70
     1
102
RTVSPropertyOp4
 70
     1
102
RTVSPropertyOp5
 70
     1
102
RTVSPropertyOp6
 70
     1
102
RTVSPropertyOp7
 70
     1
102
RTVSPropertyOp8
 70
     1
102
RTVSPropertyOp9
 70
     1
102
RTVSPropertyOp10
 70
     1
102
RTVSPropertyOp11
 70
     1
102
RTVSPropertyOp12
 70
     1
102
RTVSPropertyOp13
 70
     1
102
RTVSPropertyOp14
 70
     1
102
RTVSPropertyOp15
 70
     1
102
RTVSPropertyOp16
 70
     1
102
RTVSPropertyOp17
 70
     1
102
RTVSPropertyOp18
 70
     1
102
RTVSPropertyOp19
 70
     1
102
RTVSPropertyOp20
 70
     1
102
RTVSPropertyOp21
 70
     1
102
RTVSPropertyOp22
 70
     1
102
RTVSPropertyOp23
 70
     1
102
RTVSPropertyOp24
 70
     1
102
RTVSPropertyOp25
 70
     1
102
RTVSPropertyOp26
 70
     1
102
RTVSPropertyOp27
 70
     1
102
RTVSPropertyOp28
 70
     1
102
RTVSPropertyOp29
 70
     1
102
RTVSPropertyOp30
 70
     1
102
RTVSPropertyOp31
 70
     1
102
RTVSPropertyOp32
 70
     1
  0
XRECORD
  5
3E2
102
{ACAD_REACTORS
330
3E1
102
}
330
3E1
100
AcDbXrecord
280
     1
102
RTVSPropertyOp0
 70
     1
102
RTVSPropertyOp1
 70
     1
102
RTVSPropertyOp2
 70
     1
102
RTVSPropertyOp3
 70
     1
102
RTVSPropertyOp4
 70
     1
102
RTVSPropertyOp5
 70
     1
102
RTVSPropertyOp6
 70
     1
102
RTVSPropertyOp7
 70
     1
102
RTVSPropertyOp8
 70
     1
102
RTVSPropertyOp9
 70
     1
102
RTVSPropertyOp10
 70
     1
102
RTVSPropertyOp11
 70
     1
102
RTVSPropertyOp12
 70
     1
102
RTVSPropertyOp13
 70
     1
102
RTVSPropertyOp14
 70
     1
102
RTVSPropertyOp15
 70
     1
102
RTVSPropertyOp16
 70
     1
102
RTVSPropertyOp17
 70
     1
102
RTVSPropertyOp18
 70
     1
102
RTVSPropertyOp19
 70
     1
102
RTVSPropertyOp20
 70
     1
102
RTVSPropertyOp21
 70
     1
102
RTVSPropertyOp22
 70
     1
102
RTVSPropertyOp23
 70
     1
102
RTVSPropertyOp24
 70
     1
102
RTVSPropertyOp25
 70
     1
102
RTVSPropertyOp26
 70
     1
102
RTVSPropertyOp27
 70
     1
102
RTVSPropertyOp28
 70
     1
102
RTVSPropertyOp29
 70
     1
102
RTVSPropertyOp30
 70
     1
102
RTVSPropertyOp31
 70
     1
102
RTVSPropertyOp32
 70
     1
  0
ENDSEC
  0
EOF
